<?xml version="1.0" standalone="no"?>
<!DOCTYPE svg PUBLIC "-//W3C//DTD SVG 1.1//EN" "http://www.w3.org/Graphics/SVG/1.1/DTD/svg11.dtd" >
<svg xmlns="http://www.w3.org/2000/svg">
<metadata>
This is a custom SVG webfont generated by Font Squirrel.
Designer    : WC Fonts
Foundry     : WC FONTS
Foundry URL : www.wcfonts.com
</metadata>
<defs>
<font id="webfonte6F4DwaZ" horiz-adv-x="449" >
<font-face units-per-em="1000" ascent="800" descent="-200" />
<missing-glyph horiz-adv-x="299" />
<glyph unicode=" "  horiz-adv-x="299" />
<glyph unicode="&#x09;" horiz-adv-x="299" />
<glyph unicode="&#xa0;" horiz-adv-x="299" />
<glyph unicode="!" horiz-adv-x="333" d="M288 696l18 -3l25 -19l4 -5v-18l-15 -62l-12 -37l-29 -74l-8 -2l-36 -88l-18 -58l-6 -6l-2 -1l4 -4l-6 -8l4 -5l-4 -11l-3 -5l-6 -11l-1 -6l-15 -25l-7 -31l-2 -22l-4 -20h-5l-4 -17l-11 -7l-5 2l-8 -4l-7 13l-5 42l1 46l15 87l18 82l26 88l60 142l7 24l17 16zM95 126 l30 -13h5l2 2v5l10 2l4 -9h4l7 -11l5 4l3 -2l8 -14l5 -10h2l3 5l4 -2l3 -5l9 -11l2 -2l-2 -7l4 -7h-4v-3h2l3 -13l-1 -16l-2 -12l-13 -7l-15 -4l-9 -12l-18 2h-4l-24 8l-25 16l-7 9l-9 2l2 3l-6 6v7l-16 9l-10 5l3 6v5l4 5l-2 7l4 4h5l-4 7l6 3l-4 13l4 1l7 -1l1 1v4l8 9 l7 5z" />
<glyph unicode="&#x22;" horiz-adv-x="235" d="M138 535l8 -1l10 -6l2 -6l4 -2l2 -6l-9 -21l-1 -8l-7 -22l-8 -27l-10 -31l-1 -1l-2 -8l-4 -13l-4 -5l-3 -12l-3 -16l-4 -9l-2 -1l1 -9l2 -2l4 1v-3l-3 -3v-5l-2 -1l-1 -3l-12 -1l-1 -2l-2 1l-8 -4h-3l-7 13l-5 22l-2 31l8 47l13 39l14 35l16 27l6 8l7 3l2 -1zM215 528 l11 -1l3 -1l4 -3l4 1l7 -8l5 -10l-1 -6l-3 -8l-4 -14l-2 -3l-3 -12l-1 -5l-10 -27l-5 -10h-3l-3 -8l-11 -33l-1 -6l-4 -1l-6 -18l-5 -7l-3 -1l1 -5l-1 -2l3 -4l-3 -5l1 -3l-2 -7l-1 -3l1 -8l-3 -7l-9 -1l-11 9l-3 15l-1 27l1 30l3 17l14 50l4 11l4 14l19 46l5 3z" />
<glyph unicode="#" horiz-adv-x="888" d="M796 451q9 -15 9 -22q0 -6 -13 -6q-3 0 -7.5 0.5t-6.5 0.5q-14 0 -42.5 -3.5l-71.5 -9t-69 -8.5q-2 0 -13.5 -23.5t-11.5 -28.5q0 -3 -5.5 -9.5t-6.5 -8.5l-2 -13q-5 -10 -5 -13q0 -10 47 -10h14q75 6 86 6q13 0 28 -4.5t21 -4.5l9 -6q26 -17 26 -27q0 -9 -144 -30 q-20 -4 -47.5 -5.5t-52.5 -17.5t-25 -45q0 -11 2 -21t6.5 -22.5t5.5 -16.5l3 -12q8 -24 8 -30t-25 -6q-30 0 -47 11q-9 5 -17 29t-8 35q0 2 0.5 6t0.5 6q0 9 -5 23t-13 14h-3q-5 -3 -26.5 -5t-35.5 -11.5t-14 -32.5q0 -4 2.5 -11t2.5 -10q0 -1 -0.5 -3.5t-0.5 -3.5 q0 -3 2 -5t2 -4q0 -3 -6.5 -10.5t-7.5 -12.5q-2 -8 -1 -16.5t-1 -16.5t-9 -11l-12 4q-2 0 -7 -3t-7 -3v4q-14 6 -14 19q0 3 1.5 11.5t1.5 13.5q0 15 -10 43q-1 0 -1 2q0 3 1.5 9.5t1.5 8.5t-3 2q-4 0 -14.5 -3t-13.5 -3q-1 0 -3.5 1t-4.5 1q-4 0 -12 -1t-12 -1q-46 0 -46 39 q0 17 10 27q9 14 41.5 24.5t61.5 14.5l29 5q0 1 1 23t1 23l4 7q3 7 5.5 14t2.5 11q0 6 -10.5 10t-20.5 4q-73 0 -109 -9q-4 0 -11 1.5t-10 1.5v23h3q4 18 14 29t29 17.5t35.5 9t49.5 5.5q1 0 27.5 9t36.5 9h5q2 0 16 27t22 48l4 6q9 27 33 75q2 4 10 16.5t23 27.5t26 15 q4 0 4 -10q-21 -93 -23 -104q-8 -21 -12 -69q0 -14 6 -14q-1 0 1.5 0.5l7.5 1.5t11.5 2.5t12.5 2.5t10.5 3t6.5 3q6 6 12 24t9 23q1 1 4 6t4 8q4 8 7.5 18t5.5 15q-1 -2 0.5 2.5l4 12.5t7 19.5l9 23.5t10 24t10.5 21t9.5 15t8.5 6q14 0 29 -19t15 -39q0 -18 -5 -30l-9 -24 q-9 -25 -25 -49l-12 -21q-3 -7 -3 -12q0 -7 21.5 -12.5t42.5 -5.5q10 0 35.5 4t45.5 4q11 0 21.5 -7.5t10.5 -15.5zM493 346q-1 1 -1 4q0 5 7 17.5t7 15.5q0 4 -6 4q-3 -1 -40 -7l-37 -5q-11 -1 -21 -22.5t-10 -37.5q0 -9 1 -12q0 -1 -5 -18t-5 -19q1 -9 10 -9q3 0 12.5 2.5 t14.5 2.5q2 0 6 -1t6 -1q25 0 33.5 5.5t8.5 17.5v15q0 4 9.5 19t9.5 27v2z" />
<glyph unicode="$" horiz-adv-x="432" d="M464 533q9 -50 8 -50v1l-4 -12q-3 -7 -9.5 -9t-11 -0.5t-5.5 -0.5l1 -2q-6 -1 -22 -1q2 0 -2 1h-4q-21 4 -21 6q0 4 -13 6.5t-14 3.5q-3 -2 -12 -2t-15 2q-3 -1 -15.5 -3t-22.5 -4l-2 -2q-2 -67 -6 -114l-5 -56q-3 -32 -6 -77q45 -33 76 -58q8 -10 18.5 -21t20.5 -32.5 t10 -45.5q0 -42 -14 -66l-34 -35q-25 -14 -84 -16v-19q0 -12 -1 -23t-1.5 -17.5t-0.5 -7.5q0 -4 1 -15.5t1 -12.5q0 -9 -6.5 -17t-17.5 -8t-21 9t-10 19q0 7 2 16l1 10q-1 25 -1 68q-2 0 -7.5 1t-8.5 2q-36 5 -41 7l-9 2l-16 4t-16 5.5t-9 6.5l-7 -3q-2 1 -5 3q-1 1 -2 1 l-11 10h-4q-3 0 -5 1h-6q0 2 -1 2h-5q-1 0 -3 2t-4 3l-6 2v4l11 21l-2 2q0 6 15.5 17.5t38.5 11.5q11 0 25 -5t16 -5h6q2 -1 9.5 -3.5t20 -6t28.5 -7.5q1 30 5 130q-42 27 -55 37l-14 17q-23 17 -32 35t-20 63q3 14 4 17q-1 1 -1.5 4t-0.5 4l26 91q0 8 11.5 20t11.5 16 q2 3 4.5 9.5t12 14.5t34.5 24q22 16 36 24q2 68 2 72q0 7 -1 18t-1 16q0 28 20 28q30 0 33 -30q1 -29 1 -83q7 2 8 3q12 4 38 8t37 7q3 0 5 -1q2 1 8 1q5 0 8 -1q2 1 5 1t4 -1l12 -5q16 -4 39 -32zM294 102l-18 10q-1 -29 -1 -92v-6h10q9 0 21 11t12 21h4l10 6l2 8v7l-5 8 l-6 6l-12 11l-7 3zM202 281q18 -17 31 -28l8 180q-4 -3 -10.5 -10.5t-10.5 -11.5l-5 -7q-7 -10 -14 -18.5t-12.5 -24.5t-5.5 -35q0 -8 9 -25.5z" />
<glyph unicode="%" horiz-adv-x="541" d="M178 543l14 -3l18 -10l9 -4l17 -13l3 -8l6 -6l2 -4l3 -13l3 -10l-2 -2l3 -5l-3 -2l7 -10h3v-24l4 -21l-5 -14l1 -4l-5 -8l-3 -4l-2 -8l1 -12l-5 -9l-10 -11l-12 -7l-11 -10l-6 2l-1 -3l-10 -2l-13 -3l-1 -2l-21 -6h-14v-3h-10l-2 2l2 3l-2 2l-8 -3l-12 5l-11 2l-11 10 l-10 7l-5 6l-15 17v1l-6 12l-3 13l-2 15l4 33l8 24l9 16l20 22l26 21l31 20zM469 536h4l4 -7l-4 -10l3 -2l-7 -16l-2 -1v-1l-6 -9l-17 -20l-7 -6l-4 -5l-17 -27l-8 -10l-9 -13l-15 -18l-12 -20l-14 -20l-1 -2l-12 -14l-4 -8l-7 -8l-6 -11l-17 -25v-2l-7 -6l-5 -7v-3l-6 -6 l-2 -4l-6 -3l-5 -10l-11 -18l-10 -14l-5 -6l-9 -16l-15 -24l-9 -12l-5 -10l-8 -14l-3 -8l-12 -21l-26 -57l-8 -23l-10 -30l-8 -33v-6l-6 -12l-4 -11l1 -5l-3 -6l-5 1l-1 -4l-4 -3v-1l-8 -9l-3 2l4 35l12 58l18 59l25 63l28 60l57 108l37 58l19 25l61 77l36 38l19 17l21 20z M409 249l2 -1l2 -4l4 4l4 -2v-2l5 -2l1 -4l6 -1l2 -7l24 -20l8 -6l-2 -8l5 1l3 -6l-2 -4l6 -9l2 -6v-19h-3l-1 -2l-4 -2l4 -20l6 -12l-5 -8l-2 -5l2 -4v-5l-5 -11l-4 -20l-9 -10l-10 -9l-4 -5v-3h2v-4l-5 -4l-9 -8h-3l-5 -8l-14 -12l-21 -11l-11 -3l-4 -2v-1l-12 -3l-30 -10 l-28 2l-16 9l-6 8l-8 1v4l-7 9l-2 1l-9 14l-3 17l-3 26l4 21l14 39l10 18l-10 4h-3l7 13l36 35l24 18l36 22l16 8h8l11 6zM193 463l-16 -26l-6 -7l-20 -32l-12 -23l6 -3l23 6l13 7l9 22l4 31l2 25h-3zM402 170v-5l-10 -11l-7 -10v-3l-6 -3l-4 -9l-2 -1l-9 -13l-4 -3l-4 -10 l-5 -3v-3l-3 -2l5 -4l-16 -7l3 -2v-2l-3 -2l-2 -10l-7 -4l-6 -18l-4 -4v-5l-3 -4l2 -1l27 8l26 21l21 24l15 32l2 28v6l-3 10v8z" />
<glyph unicode="&#x26;" horiz-adv-x="528" d="M442 675l18 -4q2 -1 6 -4t7 -5q6 -7 11 -16q1 -3 4 -9.5t4 -8.5q0 -1 2.5 -4t3.5 -9.5t1 -18.5q0 -7 -0.5 -13t-0.5 -8v-2q0 -1 1 -2l2 -2q0 -14 -17 -46q6 -1 15 -10l7 -13h2q-2 -1 4 -12q1 -4 1 -9q0 -11 -1 -17q-6 -2 -12 -5l-9 -9q-5 2 -10 0q-11 -2 -17 -6 q-18 -5 -35 -14q4 -2 -7 -6q-3 -2 -16 -6q-2 -2 -30 -27q-4 -5 -12 -16t-10 -14t-2 -11q-1 -9 -5 -27q13 -4 33 -14q7 -2 9 -8l-2 -2v-1q-3 -1 -4 -7v-3q-1 0 -2 -2l-1 -2l3 -7q-6 -4 -17 -15h-1q-3 -3 -5 -8q1 -2 1.5 -4.5t0.5 -4.5q0 -1 -1 -2l-2 -2v-3q3 -3 8 -4v-6 q-5 -2 -5 -3q0 -12 7 -31q2 -8 5 -10q8 0 30 5q7 4 25 6t22 4l-2 -1l10 -1q7 0 29 -7q23 -5 23 -9q3 -1 6 -1h5q14 1 42 1l-6 -3q-5 -4 -65 -33q-14 -9 -24 -13l-13 -6.5t-14 -6.5q-4 -2 -46 -20q-2 -7 -4 -18q-1 -2 -1 -7q1 -2 2.5 -4t1.5 -3q-1 -1 -1 -3q1 -4 7 -21 q4 -15 15 -39q7 -7 8 -17q9 -7 9 -28q-1 -1 -1 -4v-9q-9 -11 -14 -13h-6q-9 -5 -30 -12l-6 -4q-6 6 -18 15q-2 3 -7 9t-7 9q-13 28 -19 39q-5 3 -15 36q-9 29 -16 38l-20 -7l-1 -1q-7 -2 -14 -6q-1 -1 -3 -5q-2 -1 -6.5 -1.5t-6.5 -0.5l-4 -4q-26 -4 -48 -11l-17 -3h-9 q-2 0 -4 -1q-20 0 -47 9q-9 8 -22 15l-5 9q-5 8 -7 8t-4.5 10.5t-4.5 10.5q-50 5 -50 58q0 35 84 99l16 14l109 63l2 6l-6 1l-5 -1l-11 -2l-4 -1l-11 1l-1 -3l-3 -1l-17 1l-13 1l-3 4l-1 12l-4 2l4 14q0 12 -2 20q-11 20 -11 82q0 23 18 35l35 16q13 5 36 30t38 31 q1 1 15.5 8.5t16.5 9.5q8 10 21.5 14.5t24.5 14.5q13 15 34 28q17 15 32 25q1 0 10 4t10 4q3 0 4 -1zM358 472q0 1 7.5 17.5t12.5 32t1 15.5q-22 0 -80 -43.5t-61 -45.5q-31 -16 -31 -24q0 -15 22 -35q27 -24 31 -30q22 20 45 38q15 18 20 23q20 20 29 41zM238 261 q-3 -3 -9 -8t-9 -8q-6 -1 -15 -7l-26 -22l-35 -28q-20 -14 -37 -29q0 -2 -18 -26q-1 -1 -1 -2q-1 -2 -1 -3v-6l-1 -2q-2 -3 -3 -5q0 -10 8.5 -17.5t17.5 -7.5l9 -3q9 -3 11 -3q10 -2 18 -4q6 1 13 1.5t16.5 1.5t16.5 2q16 6 81 37q-3 5 -11 41q-5 39 -10 43q-3 3 -8 27 q-5 25 -7 28z" />
<glyph unicode="'" horiz-adv-x="150" d="M134 523l11 -1l9 -7l9 -13l1 -15l-2 -19l-11 -47l-10 -31l-4 -10l-7 -13l-10 -21l-4 1l-1 -1l-2 -8l-1 -1l-4 1l-2 -6v-3l-6 -12l-2 -1l-5 -1l-14 -8l-1 -1l-6 9l-4 20l-1 24l4 32l7 31l10 29l20 41l12 19z" />
<glyph unicode="(" horiz-adv-x="400" d="M359 717l13 -2l3 -1l11 -3l10 -6l4 -11l-3 -14l-3 -12l-12 -22l-17 -27l-23 -42l-18 -43l-27 -57l-11 -27l-23 -48l-11 -31l-7 -22l-8 -21l-12 -22l-5 -19l-8 -42l-3 -20l-4 -31v-69l3 -14l-3 -3l1 -11l6 -22l1 -18l9 -28l28 -55l16 -24v-4l39 -48v-12l3 -6l-7 -12h-17 l-3 -5l-8 3h-3l-6 2l-36 27l-17 18l-31 41l-19 30l-21 41l-11 39l-12 52l-5 67l2 50l6 55l19 71l24 79l25 58l44 83l34 50l27 36l31 30l24 19z" />
<glyph unicode=")" horiz-adv-x="376" d="M162 707h21l20 -10l14 -12l12 -17l42 -75l24 -61l18 -65v-14l3 -15l10 -65v-25l2 -18l-3 -13l-5 -23v-20l-2 -6l-3 -24l-3 -15l-6 -11l2 -7l-3 -5l-7 -9l-7 -17l4 -4v-3l-10 -21l-6 -11l-12 -17l-7 -10l-9 -17l-8 -15l-19 -28l-2 -8l-12 -3h-3l-5 -12l-17 -21l-21 -25 l-34 -23l-10 -9l-31 -25l-13 -14l-16 -6l-8 -11l-9 -6l-17 -10l-2 28l1 9l14 44l36 66l60 82l26 47l20 44l16 48l11 37l8 44l1 42l-2 35l-8 53l-23 80l-23 69l-13 30l-5 23l-2 18l4 11l7 8h3z" />
<glyph unicode="*" horiz-adv-x="389" d="M319 737q-3 -22 -22 -58q-18 -35 -23 -56q9 3 46 34q32 26 48 26q21 0 21 -20q0 -9 -34 -46q7 -1 39 -11q27 -8 27 -18q0 -33 -86 -33q-7 0 -31 1t-30 1q0 -23 34 -51q21 -18 21 -36q0 -11 -10 -27q-34 1 -58 24q-30 28 -50 36q-20 -32 -61 -84q-38 24 -36 36q0 5 8 21 l11 21q-71 -38 -94 -38q-20 0 -9 26q8 23 46 35q42 13 60 31q-9 4 -70 8q-53 5 -55 16q-3 15 9 22.5t40 7.5h56l-27 27q-15 20 -6 33q15 22 41 22q11 0 20 -4l10 -12q17 -2 59 -18q23 30 24 36q10 24 21 31q8 5 46 17h15z" />
<glyph unicode="+" horiz-adv-x="475" d="M313 576q7 -5 5 -21l-27 -61q-19 -40 -8 -137l117 19q22 0 31 -8t8 -26q0 -2 -4 -14q-13 -34 -39 -34q-24 0 -32 2q-20 2 -36 0q-69 -14 -78 -76q-1 -12 -1 -41q2 -32 0 -39q-9 -68 -51 -68q-10 0 -23 6q-40 16 -34 69q2 8 15 78q4 21 -7 30.5t-34 7.5q-6 0 -26 -3.5 t-28 -3.5q-33 0 -36 40q-1 48 50 61l109 18q11 3 13 36q-1 14 -1 71q0 21 1 31q7 60 77 95q3 -2 16.5 -12.5t22.5 -19.5z" />
<glyph unicode="," horiz-adv-x="220" d="M52 101l22 -3l51 -16l16 -8l15 -20l10 -27l-2 -28l-8 -21l-10 -20l-17 -14l-22 -27l-25 -16l-12 -12l-6 -5l-18 -18l-12 -6l-5 -6l-32 -16l-33 -21l-14 -4l-4 6l-12 8l46 57l36 52l19 21l17 22l7 19l-8 1l-14 -1l-27 6l-7 16v22l4 18l18 28l14 7z" />
<glyph unicode="-" horiz-adv-x="415" d="M237 229l35 1h78l18 -2l7 -4v-5l-14 -4l-1 -5l-5 -1l-14 -8l-2 -7l-11 -5l-13 -11l-26 -8l-15 -5l-3 -4l-15 5l-2 -4l-25 -13l-36 -9l-23 -5l-28 1l-25 -2l-34 4l-19 -4l-11 7v5l-8 9l-4 3l1 17l-2 7l10 18l4 6l19 6l31 3l62 8l36 4z" />
<glyph unicode="&#x2010;" horiz-adv-x="415" d="M237 229l35 1h78l18 -2l7 -4v-5l-14 -4l-1 -5l-5 -1l-14 -8l-2 -7l-11 -5l-13 -11l-26 -8l-15 -5l-3 -4l-15 5l-2 -4l-25 -13l-36 -9l-23 -5l-28 1l-25 -2l-34 4l-19 -4l-11 7v5l-8 9l-4 3l1 17l-2 7l10 18l4 6l19 6l31 3l62 8l36 4z" />
<glyph unicode="." horiz-adv-x="220" d="M48 126l30 -13h5l2 2v5l11 2l-4 -9l4 -5l1 -2l2 2v5h4l7 -11l5 4l4 -2l12 -24l6 5l3 -2l4 -5l9 -11l1 -2l-1 -7l3 -7h-3v-3h1l4 -13l-2 -16l2 -7l-5 2v-2l1 -5l-12 -7l-16 -4l-9 -12l-18 2h-3l-25 8l-25 16l-7 9l-9 2l2 3l-5 6v7l-16 9l-11 5l2 6h2v5l3 5l-2 7l4 4h5 l-3 7l5 3l-4 13l4 1l7 -1l2 1v4l7 9l7 5z" />
<glyph unicode="/" horiz-adv-x="409" d="M410 692h14l17 -15l1 -12l-1 -12v-12l-16 -32l-27 -49l-32 -54l-22 -34l-27 -43l-119 -217l-5 -20l-10 -10l-27 -56l-10 -26l-6 -8l-13 -32l-9 -4l-6 -13l-28 -68l-10 -19l-10 -29l-7 -11h-3l-14 -17l-8 1l-10 5l-2 17l5 29l10 61l24 87l25 74l43 97l51 103l66 118l52 78 l53 72l25 28l22 15z" />
<glyph unicode="0" horiz-adv-x="562" d="M514 262q0 -2 -6 -66q-1 -3 -4 -16t-7.5 -25t-11.5 -25q-2 -6 -5 -12v-4l-7 -9q-11 -13 -16 -26l-21 -28l-22 -22q-22 -19 -66 -48q-25 -14 -69 -25q-4 -1 -11 -1l-16 -3h1q-20 0 -32 3q-3 0 -29 6q-8 3 -30 14q-20 6 -60 36l-26 34q-3 4 -11 18.5l-12 21.5t-17 83 q1 -3 1.5 -0.5t1 14.5t0.5 29q0 7 6 34t6 34q9 31 24 75q3 8 32 65q10 18 22 35q2 9 7 18q-1 1 -1 3q0 4 2 12q25 23 41 35q50 30 57 30q15 0 47 15l46 19h23q12 -8 26 -13q11 -9 24 -17l18 -22q8 -19 23 -37q2 -7 11 -16l2 -6h-1q2 -11 21 -39q2 -3 5 -11.5t5 -12.5 q1 -2 24 -76q5 -16 5 -74zM426 353l-3 8q-1 1 -6 7.5l-11 14.5q-5 10 -59 29q-8 3 -28 2q-19 -2 -27 0q-11 -13 -13 -17q-7 -8 -16.5 -12.5t-18.5 -11.5q-14 -10 -18 -10q-6 0 -23 -22q-16 -25 -22 -28q-18 -11 -42 -62q-17 -36 -15 -96l1 -23l3 -12t3 -13q15 -12 17 -14 q12 -4 19 -9q2 -3 16 -2.5t14 -0.5q1 -3 6 -3t19 5q11 2 17 1q5 -1 25 13q19 16 28 16q28 0 57 41l50 67q10 14 19 64q8 37 8 68z" />
<glyph unicode="1" horiz-adv-x="367" d="M412 578v-12l-2 -12l-3 -14l-15 -37l-11 -21l-6 -3l3 -7l-6 -6l-21 -42l-10 -7l-3 -7l-2 -4q-4 -8 -7 -11l-7 -14l2 -9l-9 -23l-5 -6l-4 -13l-17 -30l-5 -18l-3 -10l-5 -9l-1 -1v-3q0 -2 -0.5 -5t-0.5 -4l-1 -7l-5 -24v-7l-9 -27l-2 -15l-1 -14l-6 -2l3 -15h-4l2 -6 l-15 -46l-4 -18l-4 -5q-1 -1 -1.5 -3.5t-0.5 -3.5l1 -3l-4 -9v-1q-1 -1 -2 -5t-1 -5l2 -2l-13 -40q0 -1 1 -2q-1 -7 -5 -14v-8l-3 -3l-8 -23l-6 -5l-11 -21l-7 -21l-6 -10l-5 -2l-2 4q-3 -7 -7 -7h-1q-6 -2 -7 -3l-11 -10l-5 2q-6 -2 -12 -2q-14 2 -14 17l1 5q26 159 30 187 q13 110 82 380q-36 -31 -57.5 -45t-55.5 -20q-2 0 -21.5 -4.5t-28.5 -5.5q-24 3 -24 22q-1 31 52 69l50 42q15 11 52.5 41.5l62 49.5t54 35.5t46.5 16.5q10 0 14 -1h4l8 -2l2 -1l3 -1l1 -1q13 -5 16 -19v-1l4 -2l13 -20l3 -18l-2 -10z" />
<glyph unicode="2" horiz-adv-x="725" d="M706 88q-16 -16 -11 -16q-6 0 -11 -1h-9q-3 0 -27 -3l-21 -2q-26 -4 -52 -7q-7 0 -11 -1l-2 -3h-18q-5 -1 -17 -5q2 0 -0.5 -0.5t-9 -2.5t-16.5 -4q-16 -2 -26 -3q-106 -19 -157 -32q-20 -3 -75 -14q-12 -3 -66 -14q-24 -6 -29 -6q-12 0 -37 7q-27 7 -27 12t-2 7l-4 2 q0 4 1 6q-3 3 -3 9v1q-1 2 -1.5 8t-1.5 11v6q-1 6 -1 21q-1 3 -1 12q0 15 18 48q4 2 8 7l20 25l190 192q70 79 104 126l20 35q0 26 -11 26q-2 0 -3 3.5t-2 3.5q-31 0 -44 -1q-9 0 -31 -6l-6 -3q-13 -4 -46 -15q-27 -16 -75 -37q-26 -2 -30 7q-12 8 -20 16q-3 14 -4 15 q2 8 19.5 23t36.5 25q56 34 116 57q5 0 28.5 7t30.5 7h57q12 -2 45 -11q36 -22 36 -27t5 -16q6 -10 4 -14q0 -13 -2 -29q0 -11 -1 -16q1 -9 0 -19q1 -14 -5 -42q0 -11 -7 -32q-1 -2 -9 -25q-1 -2 -41 -56q-21 -18 -27 -24q-1 -2 -3.5 -6t-3.5 -6q-3 -1 -36 -37 q-14 -9 -55 -53q-19 -14 -41 -33q-9 -12 -11 -15l-10 -10q-27 -27 -42 -45q-2 -1 -6.5 -4l-7.5 -5q-1 -2 -1 -5l48 7q15 0 23 1l8 4q23 1 58 6q1 1 5 2q15 0 30 1q11 1 25.5 2.5t15.5 1.5q12 0 22 1l5 -2h30q1 1 3 1q3 1 4 1h29q6 -1 15 -3q6 2 19 3q44 5 60 5q20 0 35 -10 q5 -2 14 -9l5 -3q15 -15 24 -25v-3z" />
<glyph unicode="3" horiz-adv-x="475" d="M292 553l43 1l32 -7l24 -11l17 -16l19 -28l10 -16l2 -24l2 -26v-11l-7 -16l-14 -9l-24 -26l-17 -7l-20 -16l20 13l-11 -5l-3 -7l-20 -15l-6 -6l-19 -20l43 -12l45 -10l40 -38l12 -42l-8 -15l-3 -27v-24l-6 -9l-14 -11l-2 -6l-12 -8l-1 -7l-10 -6l-8 -4l-9 -11l1 -2 l-28 -14l-9 -7l-5 2l-8 -5l-18 -6l-10 -10l-23 -3l-19 -7l-31 -14l-26 -10l-12 -9l-6 2l-10 -3l-55 -22l-75 -30h-10l-20 -9l-6 2l-20 9l-11 -6l-9 -6l-15 7l5 8l-1 10l19 25l26 10l17 11l75 44l120 48l85 50l10 26l-11 32l-50 17l-37 1l-20 5l-22 11l-20 13l9 18l10 23l7 2 l8 12l16 18l69 57l4 3l30 35l14 23v12l-26 11l-34 -4l-24 -13l-57 -16l-40 -7l-31 12l-11 9l-3 15l3 14l21 24l26 13l76 37z" />
<glyph unicode="4" horiz-adv-x="590" d="M335 633h6l11 -10l10 -32l-5 -44l8 -7l-6 -31l-16 -65l-40 -141l10 2l21 9l22 4l23 11l43 12l7 3l13 3l64 15l23 6l61 13l55 10h7l4 -5l-1 -7l-8 -17l-18 -11v-15l-100 -37l-17 -9l-57 -23l-3 -6l-66 -25l-102 -43l-3 -7h-7l-11 -13l8 -12l-11 -33l-17 -8l2 -11l-7 -31 l-14 -51l-16 -60l-19 -51l-6 -24l-12 -27l-8 -14l-6 -22l-8 -14l-4 -2l-2 33l-7 -6v45l4 30l11 102l21 118v15l-29 -6l-19 6l-32 2l-31 13l-11 6l-13 12l-14 17l-2 24v23l14 44l33 89l41 108l28 91l5 2l24 21l9 3l8 -4l8 -14l-3 -21l-22 -38l-12 -42l-42 -100l-11 -69v-33 l3 -27l11 -9l40 5l46 11l36 145l38 126l24 61l5 18z" />
<glyph unicode="5" horiz-adv-x="513" d="M535 574l-12 -19q-4 -4 -25 -16q-10 -8 -20 -12l-4 -2v-2l-5 -3q-2 -1 -4 -4l-2 -4q0 -5 -10 -15q-8 -1 -29 -1q-10 -2 -45 -3q-13 -1 -51 1q-17 2 -40 7q-11 -7 -24 -20q-9 -5 -26 -18q-3 -4 -18 -14q-14 -36 -36 -70q-4 -8 -13 -20q-2 -5 9 -15t18 -10q4 0 24 -3.5 t26 -3.5l48 -16q29 -9 72 -44q8 -12 14 -19l15 -27q0 -1 2 -13q10 -23 10 -39q0 -1 -2 -7l-2 -5q-1 -3 -5 -12.5t-6 -15.5q-4 -8 -13 -23q-3 -3 -13 -18l-25 -18l-33 -24q-10 -10 -24 -19q-3 -1 -15 -7q-36 -23 -65 -30q-9 -3 -14 -4t-6.5 -2t0.5 -1q-10 0 -14 3 q-19 1 -61 18l-7 4q-8 5 -16 9q-14 9 -14 12t4 6q-5 2 -6 8q0 -2 1 -2l-3 6q-2 -4 -1 -12q-1 -1 1 -12l-2 -2q0 5 5 6v1l7 4q-1 0 1.5 1.5t8.5 5.5q18 12 27 17q6 5 18 11.5t17 9.5q44 25 84 65q4 5 19 18.5t23 22.5q0 1 1 3t1 3q0 3 4.5 17.5t4.5 17.5q0 10 -9 20 q-31 17 -49 17q-3 0 -18 1t-27 1q-35 3 -44 0q-3 0 -15.5 2.5t-14.5 2.5q-1 0 -19 13q-23 34 -23 44q0 16 24 62q6 9 41 73q-2 8 -2 16l2 7q-1 6 -1 22q0 6 12 25q23 36 23 47q-9 9 -9 18q9 9 28 9l6 -1q4 1 16 1q3 0 11.5 -2t14.5 -3l4 -2h13l1 -1q2 0 2 -1h6q1 1 3 1t3 1 q5 -1 17 -1.5t18 -0.5q3 0 4 1q5 -1 11 -1q1 1 4 1q4 0 5 -1q1 1 3 1q3 1 4 1q9 0 15 -1l29 3q12 1 25.5 1.5t19 1t12 1t5.5 0.5h-1h7q8 0 22.5 3.5t15.5 3.5q3 0 19.5 -6.5t19.5 -8.5l8 -8q1 -2 2 -6.5t2 -6.5z" />
<glyph unicode="6" horiz-adv-x="434" d="M422 668l13 -5l10 -5l2 -16l3 -8l-12 -13v-6l-7 -12l-17 -19l-10 -22l1 -5l-10 -11l3 -4l-13 -5l1 -6l-3 -4l-10 -13v-8l-4 -4l-6 2l-3 -4l-11 -5l-2 -9l-17 -19l-22 -27l-19 -28l-16 -17l-7 -15l-26 -39l11 -5l18 3l22 -7l6 -10h12l14 -6l19 -19l7 -25h1l4 -11h8l1 -15 l3 -1l-4 -6l7 -9l3 -26l5 -3v-16l-3 -3v-15l-1 -11l1 -14l-1 -7h-6l2 -15l-4 -7l2 -7l-7 -4v-20l-18 -13l-9 -22l-13 -8l-8 -11l-18 -17l-13 -11l-23 -15l-6 -10l-18 -8l-16 -4l-9 -9l-41 -14l-31 -1l-39 10l-15 7l-10 10l-20 27l-2 7l-9 20l-9 40l-1 48l7 53l16 51l23 46v4 l39 73l29 49l6 6l7 14l16 21l11 16l24 32l13 15l6 6l17 25l80 81l70 56zM211 255h-13l-9 -6l-7 2l-6 -12v-3l-7 -10l2 -4l-8 -6v-3l-6 -21l-4 -1l-7 -24l3 -5l-4 -6l-6 -21l-5 -13l3 -12l-8 -12l4 -2v-14l-1 -36l8 -25l21 -6l24 12l32 27l29 28l13 26l10 41l-2 59l-9 26 l-12 12l-6 5l-7 -1l-12 7z" />
<glyph unicode="7" horiz-adv-x="477" d="M370 683q10 0 35 -10q24 -9 30 -16q17 -17 17 -16v-17v-10.5v-7.5l1 -1q5 -20 5 -44q0 -18 -1 -29q1 -4 1 -12q0 -4 -1 -6q1 -1 1 -7l-14 -50v-6q-4 -10 -10 -30l-17 -46q-10 -13 -14 -32q-9 -14 -17 -32q2 -2 5 -7.5t5 -8.5q0 -14 22 -15h16l5 -10l5 -25q1 -1 1 -8 q0 -8 -10 -22.5t-18 -17.5q-1 0 -8 -5.5t-9 -5.5t-11 -4t-10 -4q-4 0 -6 1q-2 -1 -4.5 -1.5t-4.5 -0.5q-1 -1 -22 -10q-7 -5 -26 -11q-7 -4 -34 -14q-8 -18 -14 -29q-1 -3 -3 -11l-33 -80q-3 -8 -6 -13q-8 -8 -9 -21q-5 -5 -5 -6l-6 -24q-4 -4 -5 -7q-11 -29 -25 -29 q-2 0 -8.5 -4t-7.5 -4q-2 0 -2 1q-1 -1 -4 -1q-3 6 -1 14v7q1 6 10 45q7 27 35 109q-13 -1 -29 28q-17 31 -29 28q-2 0 -5.5 5t-5.5 5q-6 0 -6 60q0 6 3 9.5t7 2.5q5 0 61 22q54 20 79 24l54 124q32 78 35 130l2 36q3 6 3 11q0 11 -12 11l-45 -9q-29 0 -120 -25l-40 -8 q-4 -1 -17 -2.5t-21 -3.5q-7 0 -22.5 -1.5t-21.5 -1.5q-11 -7 -25 -7q-3 0 -10.5 14.5t-7.5 19.5q0 8 30 31q28 13 49 24l71 21q28 12 161 42q13 4 34 4z" />
<glyph unicode="8" horiz-adv-x="496" d="M553 522h12v-4l-12 -3l-4 -6l-16 -10h-8v-2l2 -4l-2 -10h2l26 -3v-4l-42 -12l-40 -15l-6 -2l-5 -6l-20 -8l-46 -26l-21 -15l-22 -13l-16 -16l-19 -15l-13 -13l-22 -14l-3 -13l-6 -2v-6l-11 -22l-2 -11l13 -12l43 -32l52 -49l28 -40l9 -15l9 -20l4 -16l2 -23l-2 -13l-6 -4 l-25 -25l-19 -12l-39 -27l-15 -8l-12 -4l-23 -12l-48 -13l-63 -7l-61 -5l-15 5h-16l-12 10l-16 7l-3 6l-15 32l3 16v14l6 30l27 70l10 19l12 31l44 78l-12 11l-22 24l-20 30l-8 25v16l10 25l12 19l45 49l66 54l88 54l38 20l18 6l24 6l22 -5l14 -11l17 -31l-6 -12l-4 -6l3 -7 l17 -3l2 5l17 5l3 -1l15 3l38 4l19 3l4 -1l6 4h19v-6l-6 -1zM290 122l-48 41l-40 32l-1 -1l-12 -18l-16 -29l-3 -15l-4 -4l-3 -12l-11 -21l-1 -8l-3 -8l-3 -8l6 -10l3 -13l25 -6h21l4 3h25l13 3l41 6l29 5l16 11l-4 11l-5 9zM391 497v4h-15l-13 2l-8 -2l-9 -3l-9 -1l-15 -6 l-13 -9l-14 -9l-20 -12l-20 -18l-38 -33l-32 -30v-2l-9 -13l-4 -4l-7 -12l5 -11l15 -11l48 51l26 29l60 50l32 20h10v6z" />
<glyph unicode="9" horiz-adv-x="496" d="M475 591l6 -6q10 -11 10 -36q0 -12 -7 -43q-5 -30 -11 -40q0 -4 -7 -22q-10 -28 -11 -29q-5 -11 -6 -11q-2 -9 -6 -13q-12 -25 -18 -33l-9 -21v-3l-3 -2q-5 -18 -37 -95q-20 -46 -44 -87v-3q-22 -39 -33 -51q-25 -46 -46 -75q-22 -17 -16 -17l-3 -6q-4 -7 -7 -9l2 -4 l-29 -29q-9 0 -11 8q-2 12 12 28q6 6 17 30q4 10 11 24.5t9 19.5q13 27 17 38q24 69 34 85q4 13 12 27q12 28 13 31q8 25 9 31l-2 4q-12 -8 -22 -10q-16 -13 -24 -14q-8 -3 -25 -6q-3 0 -5 1q-20 -6 -40 -6h-46q-8 2 -16 6q-1 -1 -6 -1q-3 1 -9.5 4.5t-9.5 4.5q-2 2 -5 3 l-3 2q-12 5 -29 30q-10 14 -24 37q-14 34 -14 64v18l8 33q3 4 15.5 24.5t18.5 28.5q61 75 123 103q64 32 84 33q32 9 57 9q42 0 50 -7q12 -3 42 -25q13 -6 34 -23zM377 474q5 8 5 51q0 15 -13 25.5t-29 10.5q-3 0 -69 -21q-6 -4 -11 -6q-14 -8 -21 -9q-15 -7 -60 -51 q-13 -14 -37 -72q-8 -21 -11.5 -26.5t-3.5 3.5q-8 -9 13.5 -32t48.5 -20q-1 0 18 -3q17 -4 28 -2q8 2 22.5 4.5t20.5 4.5l32 12q14 14 24 26q6 8 15 22.5l13 20.5q12 36 15 62z" />
<glyph unicode=":" horiz-adv-x="225" d="M113 371l23 -14h4l2 2v6l8 2l-3 -10l3 -5h3v5h3l5 -12l4 4l3 -2l6 -15l5 -11l3 5l3 -2l2 -5l9 -14l-2 -8l2 -11l3 -14l-2 -18l-1 -13l-10 -8l-12 -4l-7 -13l-14 2h-3l-19 9l-20 17l-5 10l-7 2l1 4l-5 6v8l-12 10l-8 5l2 7v5l4 6l-2 7l3 5h4l-3 7l5 4l-4 14l4 1h7v4l5 10 l6 6zM83 121l23 -14h4l2 2v6l8 2l-3 -10l3 -5h3v5h3l5 -12l4 4l3 -2l6 -15l5 -11l3 5l3 -2l2 -5l9 -14l-2 -8l2 -11l3 -14l-2 -18l-1 -13l-10 -8l-12 -4l-7 -13l-14 2h-3l-19 9l-20 17l-5 10l-7 2l1 4l-5 6v8l-12 10l-8 5l2 7v5l4 6l-2 7l3 5h4l-3 7l5 4l-4 14l4 1h7v4l5 10 l6 6z" />
<glyph unicode=";" horiz-adv-x="199" d="M118 63q0 -16 -14 -58l-27 -37q-11 -8 -26 -27q-7 -7 -18 -21q-9 -5 -13 -11q-24 -16 -47 -38q-2 -1 -16 -9l-6 7l-8 7q-1 -1 -8 -1q-1 0 -1 2t5 17l5 13l55 76q6 11 20 32q-3 2 -7 6q-10 7 -10 24q2 7 3 18q0 1 1.5 6t2.5 8q4 7 12 25q8 8 14 15q2 1 16 1q4 0 19.5 -5.5 t18.5 -8.5q22 -16 29 -41zM57 371l23 -14h4l2 2v6l8 2l-3 -10l3 -5h3v5h3l5 -12l4 4l3 -2l6 -15l5 -11l3 5l3 -2l2 -5l9 -14l-2 -8l2 -11l3 -14l-2 -18l-1 -13l-10 -8l-12 -4l-7 -13l-14 2h-3l-19 9l-20 17l-5 10l-7 2l1 4l-5 6v8l-12 10l-8 5l2 7v5l4 6l-2 7l3 5h4l-3 7 l5 4l-4 14l4 1h7v4l5 10l6 6z" />
<glyph unicode="&#x3c;" horiz-adv-x="443" d="M437 410q-1 0 -1 -3t-1 -3l1 -2v-6.5t-1 -6.5q-1 -3 -9 -7l-7 -4q-10 -9 -31 -16q-10 -4 -29.5 -9.5t-25.5 -7.5q-2 0 -6 -1.5t-5 -1.5q-2 -1 -5 -3.5t-5 -3.5t-6.5 0t-6.5 0q-8 -3 -10 -4q-1 0 -5.5 0.5t-6.5 -0.5q-3 -2 -10 -9.5t-11 -9.5q-1 -1 -8.5 -0.5t-7.5 -2.5 q-1 -4 6 -10q2 -1 3 -2q4 -3 11 -12t11 -12q8 -8 23.5 -22t27 -26t20.5 -24q0 -1 2 -3t2 -3q8 -10 11 -19q13 -34 -11 -58q-2 -4 -4 -5v-1l-1 3q-1 3 -2 4l-13 13l-16 16t-16 17l-27 28q-25 33 -46 48q-26 20 -52 31q-8 0 -12 1q-2 1 -5 3t-4 3t-4 -1.5t-4 -2.5l-10 5 q-1 0 -2.5 2.5t-2.5 2.5q-11 7 -18 16q-1 2 -1 5.5v5.5v2q0 1 -1 1q0 3 -1.5 4t-1.5 4l2 1h4q3 20 3 21q12 16 38 21q2 0 8.5 -1.5t9.5 -0.5t9 4t10 4t12 1.5t12 1.5q17 5 66 26q2 1 6 1t5 1q2 1 4.5 4.5t3.5 3.5q1 1 3 1t3 1q7 2 18 8.5t15 8.5q2 0 6 -2t6 -1q4 3 12 12 t13 12q1 0 5 0.5t6 1.5q0 1 2 3q0 2 1 2q2 1 5.5 2t5.5 2q1 1 3.5 1.5t3.5 1.5t2.5 2t2.5 1l2 -1l2 -1h4l1 -1q3 -2 4 -3q10 -15 13 -34l1 -3l1 -3q0 -4 0.5 -6t0.5 -6z" />
<glyph unicode="=" horiz-adv-x="554" d="M521 120l1 -1q-7 -20 -47 -24q0 -1 -3 3l-3 4q-6 0 -8 -4q-3 -3 -8 -3q0 1 -4.5 -1t-4.5 -1q-6 1 -18.5 2t-18.5 2h-24q-3 0 -8 -1t-7 -1q-15 1 -45 1q-3 0 -8.5 -0.5t-8.5 -0.5q-10 1 -31 5t-32 5q-15 1 -43 -1t-42 -2h-12q-29 3 -35 2q-13 -2 -24 1q-13 6 -15 14 q-2 6 -2 14q5 27 52 37q1 0 10 4t12 3q4 -1 8.5 -8.5t7.5 -8.5q11 0 35 2.5t36 1.5l58 -9q3 0 13 1t15 0q9 1 25.5 -1t23.5 -2q3 1 9 1.5t9 1.5q3 0 9.5 1t9.5 2q4 1 11.5 4t11.5 3h12t12 1q38 6 46 3q9 -3 18 -18l6 -9v-1q-1 -1 0 -1q0 -3 0.5 -10t0.5 -11zM135 269 q-39 -7 -65 12q-4 3 -8 18q-1 7 8 13q1 1 2.5 5.5t2.5 5.5q3 2 9.5 5.5t9.5 5.5h7t7 1l11 5.5t15 5.5q14 3 98 3q25 0 74.5 1t74.5 1q5 1 14 2t14 2l1 -1q5 0 14.5 1.5t14.5 1.5l1 -2q1 -2 1 -3q-1 0 -1 1l1 -1q1 0 3 0.5t3 0.5q7 -3 16 -16q7 -12 5.5 -33t-9.5 -30 q-30 2 -44 2q-2 0 -7.5 4t-8.5 5q-1 0 -5 -4t-6 -4l-8 4l-15 6q-5 1 -14 1h-15q-8 0 -22 2t-22 2q-6 0 -17 -2t-16 -2q-22 0 -33 -2l-46.5 -8.5t-44.5 -8.5z" />
<glyph unicode="&#x3e;" horiz-adv-x="421" d="M417 316q2 -4 -5 -12l-3 -3q-7 -12 -23 -34q-1 -2 -2 -6t-2 -6q-3 -4 -8 -15t-9 -15q-10 -9 -50 -38.5t-55 -51.5v-4v-4q-1 -1 -5 -2.5t-5 -3.5q-1 -1 0.5 -3.5t1.5 -3.5q-1 -1 -3.5 -4t-3.5 -4q0 -2 -2 -6q-7 -14 -17 -21q-2 -2 -12 -6q0 -1 -0.5 -1t-0.5 -1 q-2 0 -2.5 1t-2.5 1q0 1 -2 0t-2 0q-5 2 -9 6q-1 1 -4.5 2.5t-4.5 2.5q-20 23 -13 50q1 2 3 5t3 5q0 1 -0.5 3t-0.5 3q2 4 8 9t7 8q7 10 15.5 18.5t21.5 20t18 16.5q14 12 22 20l12 11.5t12.5 16t3.5 17.5q-3 12 -35 35q-4 2 -65 36q-6 4 -19.5 11t-20.5 11q-1 0 -4.5 1.5 t-5.5 2.5q-41 17 -47 43q-1 0 1 3l1 2q0 2 -2 3.5t-2 4.5h7q2 6 8 14t11 9q5 2 16 0.5t15 -0.5t11.5 5t10.5 5q0 1 4 1h3h5v-1l1 -1q3 -1 5.5 -4t3.5 -4q14 -12 15 -13q1 -2 2.5 -5.5t1.5 -4.5q1 -1 0 -4l-1 -3q9 -18 17 -27q23 -23 77 -46q2 -1 6 -1h6q1 0 3.5 1t3.5 0 q1 0 4.5 -1.5t5.5 -1.5q6 -4 9 -5q2 -1 4.5 -5t4.5 -4q1 0 4 2t4 1q2 -1 4 -5t4 -5t6 0t5 1q2 -1 3.5 -3.5t2.5 -2.5q2 0 4 -3t3 -4z" />
<glyph unicode="?" horiz-adv-x="481" d="M444 575q9 -16 10 -32q0 -18 -6 -36q0 -2 -2 -10q-4 -10 -5 -16q-11 -12 -29 -37q-8 -10 -22 -20q-2 -2 -10 -12q-11 -10 -30 -29q-7 -9 -23 -25l-27 -22.5l-26.5 -22.5t-25 -23.5t-23 -25t-20 -26.5t-16.5 -29q-8 -17 -29 -36.5t-36 -19.5q-13 0 -13 13q0 4 1 7 q-4 2 -4 5q-1 4 19 40q37 74 80 127q22 22 59 66t43 68v2q0 17 -4 31q-1 1 -2.5 4t-2.5 4q-4 4 -9 4q-6 10 -12 9q2 5 -1 5l-4 -2q0 1 -2 1q-5 7 -5 8q-9 3 -20 3q-26 0 -67.5 -26.5t-58.5 -27.5q-8 0 -13.5 6.5t-5.5 14.5h-5q-11 0 -11 7q0 5 4 10q-1 1 -1 4q0 14 30.5 43 t55.5 41l50 22.5t41.5 13.5t50.5 7q41 0 78 -24.5t49 -63.5zM159 47q0 -1 1 -2l4 -18q0 -2 -2 -6q-7 -24 -20 -46q-18 -10 -40 -28q-4 -2 -16 -2h-3q-14 3 -19 8l-16 16q-2 2 -8 12q0 1 -1 2q-2 2 -2 3l2 6q-2 2 -14 16q4 10 23 33q3 10 4 11q1 0 4.5 1.5t5.5 2.5l1 4 q7 5 16 13q6 5 15 9q1 1 19 -1q2 0 17 -6l4 4q1 -2 2 -2l6 -8q1 1 5 1q7 -10 9 -24q1 1 3 1z" />
<glyph unicode="@" horiz-adv-x="592" d="M431 366h1h-1zM565 260v-1v-3l-1 -1l-2 1v-5q-1 -32 -30 -100q-23 -53 -74 -86q-5 -3 -18.5 -17t-23.5 -17q-2 0 -13 3t-13 3q-5 -1 -16 -3t-16 -2q-2 0 -4 3q0 -2 -5 -2l2 -2l-3 2l-3 -1q1 0 -13.5 -2.5t-33 -5t-26.5 -2.5q-4 0 -10.5 0.5t-35.5 0.5q-32 0 -51.5 22 t-24 43t-4.5 42q0 61 59 122t128 61q72 0 83 -50q4 -4 4 -6q0 -18 -17.5 -60.5t-17.5 -58.5q0 -12 5.5 -16t20.5 -4q37 0 58.5 30t21.5 69l-1 1q0 1 -1 3q0 1 1 3t1 4q0 4 -2 11.5t-2 11.5q0 2 0.5 7.5t0.5 9.5q0 1 -0.5 5.5t-0.5 6.5q2 10 2 15q0 19 -20 41.5t-38 30.5v-1 q-29 16 -72 16q-71 0 -133 -38.5t-98 -102.5l-6.5 -10t-7.5 -9q-3 0 -16 -45.5t-13 -78.5q0 -122 154 -122q37 0 81 14q21 14 29 14q9 0 9 -16l-3 -5q-40 -77 -82 -77q0 1 -1 1q-4 0 -4 -1q-5 0 -5.5 1.5t-5.5 1.5q-3 0 -7 -1l-4 -2q-12 0 -58.5 14t-63.5 14h-2l-1 -1 q-1 0 -21 9q-81 30 -81 146q0 22 2 33q95 300 302 329h3h6q7 2 44 2h8q0 -2 21 -5t24 -4q35 0 73 -35t52 -75q3 -12 5 -32t4 -27q3 0 3 -7v-5zM347 183q14 30 19 44q0 11 -13.5 21t-18.5 10q-42 0 -85 -27.5t-43 -74.5q0 -1 0.5 -2t0.5 -3q0 -1 -0.5 -2t-0.5 -3 q0 -11 14.5 -33.5t32.5 -22.5q7 0 31 5.5t25 6.5z" />
<glyph unicode="A" horiz-adv-x="411" d="M287 609q7 0 13.5 -1.5t15.5 -4.5t17 -5q31 -18 38.5 -40.5t9.5 -42.5v-36q0 -2 -1.5 -34.5t-9.5 -97.5q0 -5 -6 -28t-6 -60l-1 -1q-2 -3 -3 -13q1 -1 1 -3l-2 -6l-2 -6q0 -2 5.5 -8.5t5.5 -8.5q-1 -3 -1 -6q1 0 1 -1q-1 -8 -10 -17q1 -5 1 -11q-1 -1 -1 -2q-1 -2 -1 -3 q0 -5 1 -8v-5.5t-1 -9t-3 -6.5l3 -19q-1 -3 -1 -10q1 -1 1.5 -4t0.5 -4q-1 -1 -1 -3q0 -4 1 -7q-1 -3 -1 -11q0 -4 3 -24.5t3 -32.5v-5q1 -3 1.5 -8.5t0.5 -8.5q0 -4 -1 -7v-6q0 -2 -1 -13t-1 -13q1 -2 1 -8q1 1 0 -1.5t-4 -7.5l-6 -10.5l-5.5 -10.5t-2.5 -7q0 -1 -2 -1 t-5 3l-1 -5l2 -10q-2 -2 -3 -2q-3 0 -16 56v3q-16 72 -23 121l-9 6q-12 21 -50 54l-32 -7h-1q-10 -1 -57 -7q-6 -12 -33 -94l-3 -9l-2 -6l-4 -13q-4 -10 -5 -14l-7 -17q-5 -11 -9 -31q-21 -21 -34 -21q-12 0 -23 14.5t-11 27.5t7.5 36.5l20.5 63.5l17 53q1 2 3.5 8l5 12.5 t3.5 12.5q-2 7 -3 18q1 4 1.5 6.5t1.5 5t3 8.5t5 14v1q17 14 26 34q4 18 33 79l25.5 52.5t29 61.5t19.5 48l4 9q10 20 23 49q2 5 6 9q27 57 45 57zM275 472q-8 0 -58 -131q-5 -8 -19 -41.5t-21 -69.5h22q8 0 34 2t42 3q8 8 8 166q0 14 -1 33l-7 37v1z" />
<glyph unicode="B" horiz-adv-x="462" d="M307 574l40 -1l22 -5l21 -4l31 -15l26 -18l9 -12l10 -31l1 -12l-4 -7l3 -2v-21l-3 -9l-12 -18l-5 -3l-1 -8l-5 -9l-10 -3l-18 -28l-17 -13l-4 -7l-9 -4l-10 -13l-25 -24l-12 -7l-8 -8l-1 -6l-12 -10l42 -8l35 -12l11 -5l13 -11l8 -18l7 -26l-1 -7l-3 -5l-10 -26l-12 -18 l-6 -4l-1 -3l-22 -27l-4 -2l-1 -6l-7 -3l-4 -5l-15 -11l-5 -7l-12 -4l-10 -11v-2h-8l-5 -4l-1 -10l-11 -6l-14 -3l-3 -6l-16 -5l-15 -1l-9 -9l-5 -1l-7 -5l-10 -5l-10 -1l-7 -8l-6 -3l-3 1l-4 -2l-9 6l-15 -13l-8 1l-1 3l-8 1l-7 -5v-3h-3l-5 4l-5 -1l-3 -11l-8 1l-10 -6 l-13 -6l-3 3l2 6l5 -3l3 11l5 1l1 2l10 2v7l4 7l9 2l3 4l17 12l23 20l8 3l21 17l31 17l20 23l7 4l17 12l19 17l12 6l1 5h4v3l11 10l9 3l8 7l28 26l4 6l-4 7l-36 6l-7 -1h-18h-31l-36 -5l-16 -6l-10 1l-29 -4l-9 -6l-13 -19h-4l-11 -13l-3 -7l-9 -16v-8l-8 -20l-4 -4l-8 -23 l-4 -27l-3 -3l-5 -31l-8 -13l-2 -12l-13 -13l-2 -5l-11 5l-11 2l-13 13v43l24 154v17l7 23v20l5 19l-1 3l4 12l1 10l15 92l-4 9l-10 13l-1 14l-4 8l-1 9l8 9l4 9l-3 3l16 19l8 5l15 18l34 26l6 1l25 15l8 2l16 10l40 12l16 2l6 3l14 3h12zM351 448l-39 -8l-27 -9l-20 -10 l-35 -23l-15 -5l-7 -21l2 -7v-18l-3 -7l-7 -33l20 2l14 5l79 43l18 14l32 23l24 26l8 12l-1 6l-6 5l-15 5h-22z" />
<glyph unicode="C" horiz-adv-x="382" d="M462 480l6 -41l-9 5l-1 -17l-2 1l1 -8l-11 11l-1 -6l-18 11q-1 -1 -4 -1l-1 -1h-4l-10 -2h-7l-6 5l-8 10l-3 5l-2 3l-2 1h-1l-5 -4v-3l-9 -1h-1q-1 0 -2 -2l-20 -9l-14 -11l-16 -11l-31 -31l-17 -16l-24 -31l-15 -33l-20 -34l-8 -8l-10 -29l-10 -17l-12 -27l-12 -35 l-10 -29l-6 -36v-26l5 -20l12 -17l19 -10l21 -3h27l62 11l3 -4h4l-3 -5l7 -3l-3 -3l2 -4h-4l-3 -4l4 -1l2 -6l-4 -1l-9 -5l-30 -14l-2 1l-31 -13l-73 -6l-36 9l-30 14l-25 18l-17 20l-17 36l-5 28l2 35l4 11l-1 11l2 4l2 20l6 12l8 26l31 68l3 3l8 12l1 5l10 15q4 4 5 6 q4 11 34 51l11 15l8 10v2l32 39l7 2l1 7l28 34l12 9l7 7l24 28h5l2 5l16 11l8 9l6 2v-2l5 2l-1 1l24 10l51 8h10l12 -4l12 -6l5 -5h1q0 -2 2 -2q2 -2 4 -3l11 -5l6 -3l1 -1l6 -7l6 -9l5 -9l8 -15l-3 -2z" />
<glyph unicode="D" horiz-adv-x="496" d="M477 318q-2 -26 -11 -46l2 -2q0 -15 -13.5 -45.5t-42.5 -61.5q-13 -22 -32.5 -41t-48 -42t-41.5 -35q-4 -1 -20 -12t-39 -24l-4 -3q-16 -5 -54 -26q-32 0 -32 -7l-10 -2q-3 -2 -23 -6l-4 4q-4 4 -12 6q-1 -1 -3 -1l-5 1q-1 -1 -5 -1q-1 0 -1 1l-2 1q-2 -2 -4 -2t-7 6v-2 h-1q-2 0 -2 -1q-5 4 -7 10l-1 -1q1 0 1 -1h-3q-4 4 -5 4q-1 1 -5 -1l-2 -2h-11l-1 2h-4q-3 2 -3 13l3 6l2 8q0 1 7 15.5t11 23.5l3 53l2 14l2 17q20 115 31 185l3 3l7 30q-4 -7 0 10l17 62l3 9q0 5 4 20.5t5 25.5q1 21 5.5 34t8.5 16t10 4.5t7 2.5q0 3 19 17.5t32 13.5 q8 0 12 -2q25 6 32 8q3 0 5 -1l2 1l2 2l12 -7q13 -6 36 -13q9 -2 13 -2.5t20.5 -11.5t53.5 -39q2 -2 11 -8.5t18 -18t19 -31.5q1 -7 2 -7.5t2 0t7 -11.5t15 -36q0 -2 4 -14.5t6.5 -28t1.5 -32.5zM393 290q2 12 2 17q0 19 -2 26q-5 31 -31 79l-18 21q-17 16 -43.5 26 t-62.5 21q1 0 -2.5 -2t-9.5 -5t-12 -6.5t-10.5 -8t-4.5 -7.5q-2 -5 0 -14q-2 -7 -5 -23.5t-5 -23.5l-1 -11q-2 -3 -15 -77l-2 -5l-3 -21q-2 -17 -10 -47q-1 -7 -9.5 -40.5t-13.5 -79.5l-2 -6l-1 -14q0 -1 -1.5 -6t-1.5 -7t0.5 -11t0.5 -15q46 16 52 19t83 50 q62 46 91.5 83.5t36.5 87.5z" />
<glyph unicode="E" horiz-adv-x="488" d="M552 528q-12 -12 -53 -15q-3 -1 -12.5 -1.5t-16.5 -3.5q-1 1 -4 1l-10 -6q-3 -3 -15 -6q-3 0 -5 1l-19 -6l-14 -4l-9 -2q-1 1 -4 1q-1 -1 -32 -4h-4q-2 0 -7 -2l-5 -2q-7 -1 -12 -2t-7 0t-4.5 0.5t-2.5 1t-3 0t-3.5 -1.5t-7.5 -5l-10.5 -7.5t-16.5 -12.5t-23 -17l-6 -4 l-13 -10.5t-14 -13.5q-1 -3 -10 -19.5t-16.5 -36t-7.5 -34.5q0 -3 2 -5l32 2q6 1 20 1.5t21 0.5q3 0 10 -0.5t11 -0.5q3 0 11 0.5t12 0.5q9 -2 34 -2l4 -2l27 6h-1q13 0 17 -4v-2q1 -1 1 -19l-11 -7l-8 -3l-3 -3l-14 -3q-3 -3 -14 -7l-14 -6q-5 -5 -75 -17q-29 -34 -57 -54 q-5 -11 -14 -22q-1 0 -10.5 -1t-15.5 -4t-6 -9q0 -35 11.5 -49t39.5 -16l1 -12l5 -4h21l31 4l39 7l18 5l37 9l1 -3q1 -1 1 -3q-1 -3 -1 -6l1 -1v-2q0 -3 1 -5q-4 -4 -5 -6l-1 2q0 -4 1 -6q-2 0 -3 -6.5t-7 -12.5v-2q-6 -15 -12 -22v-4q-31 -15 -45 -19t-50 -7h-13 q0 -1 -3 -1q-4 0 -19 3q-16 0 -26 2.5t-40 20.5l-5 6q-6 5 -12.5 12.5t-12 17t-13 31t-15.5 55.5q1 3 1 10q0 6 -2 20q0 3 4 37t8 59q0 9 2 18t5.5 19t12 39t18.5 67l-3 6q-5 10 -10 30q3 2 8 7v3l5 5q-1 1 -1 4q2 9 17 28h2l7 7q1 1 12 10.5t15 15.5q-3 2 -3 15 q18 12 30 13.5t16 -0.5q1 0 4 -1t5 -1h3h6l4 -1q3 0 22 1.5t35 1.5h35q3 -1 9.5 -1.5t9.5 -0.5h68q5 -1 16 -1h-1q0 4 55.5 -2.5t67.5 -18.5v-6z" />
<glyph unicode="F" horiz-adv-x="433" d="M475 537q0 -16 -17.5 -26.5t-41.5 -10.5h-8l-2 6q-2 6 -8 10.5t-17 4.5q-26 0 -58 -10q-2 -1 -17 -5.5l-28 -8.5t-31.5 -11.5t-33.5 -15.5q-5 -27 -28 -125q-2 -25 -10 -43q0 -13 5 -21.5t12 -8.5q5 0 57 16q4 3 41.5 14.5t68.5 11.5q26 0 26 -24q0 -6 -38 -22 q-39 -15 -132 -40q-8 -3 -16 -3.5t-21 -10.5t-25 -28q-8 -30 -17 -77t-14 -70t-16.5 -41.5t-28.5 -18.5q-5 0 -8 1q-7 2 -25.5 13.5t-18.5 18.5q0 35 7 72t31 150q-3 6 -3 11q0 7 7 19q0 -5 4 12t10 47t13 61t15 58t13 36q0 2 -0.5 7t-0.5 7q0 55 34 55q27 0 39 -5t17 -5 q26 0 115.5 23.5t93.5 23.5q15 0 35 -16t20 -31z" />
<glyph unicode="G" horiz-adv-x="558" d="M502 294l12 -38v-27l-6 -23l-5 -11l-16 -47l-30 -66l-7 -22l-17 -33l-12 -34l-4 -26l-4 -1l-4 -22l-21 -40l-11 -46l-9 -31l-1 -13l-9 -9l-1 -10l-2 -3h-1l-2 -15l-15 -25v78v146l7 38q-11 4 -27 4t-79 -16t-78 -16q-57 0 -96.5 57t-39.5 132q0 41 8 70l7 22l27 58l13 20 q19 36 36 62t32 41.5t31.5 31t35.5 30.5l34 30l18 6l16 12l19 3q23 9 55 14l2 2l4 -1l18 5l32 4l10 -3h11l18 -8l-1 -31l5 -7l-4 -11l-17 -17l-16 -6h-3l-7 -3h-17l-7 5q-2 0 -7 -0.5t-7 -0.5l-17 -7h-18l-21 -13l-9 -8l-3 -8l-7 -5l-46 -54l-29 -24q-3 -8 -4 -20t-14 -28 l-32 -34q0 -6 -4 -26.5t-9 -25.5l-13 -17l-2 1q-5 -8 -2.5 -21t-2.5 -15q-1 -9 1.5 -18t2.5 -14q2 -7 13 -28q5 -9 6 -16q0 -5 10 -10l9 -11l16 -12l27 -6q3 1 7.5 1t6.5 1l29 2l49 21l29 10l7 9l31 55l3 16l19 46l15 41l6 5l1 11l10 6l15 15h6l10 -4l6 1l10 -12l13 -6z" />
<glyph unicode="H" horiz-adv-x="506" d="M436 591l10 -4l14 4l17 -12l2 -8l4 -32l-14 -109l-4 -19l-12 -52l-9 -36l-5 -10l1 -1l37 -9l16 -6l13 -4l-2 -8l-8 -1l-4 -4l-15 -6l-8 -8h-13l-25 -3l-12 -11v-10l-8 -8l-6 -23l-12 -24l-5 -24l-5 -32l-6 -16l-2 -14v-19l-6 -12l2 -9l-3 -23h1v-12l-3 -7v-17l-4 -2 l-2 -8l2 -3l-1 -5h-3l-9 -8l-4 2l-2 -7l-5 3l-3 -1v-3l-5 -2l-1 -4l-4 -5l-12 -2l-7 7l-6 11l-5 23l-7 52v45l8 77l12 75l-22 -3h-25l-47 -12l-26 -3l-9 -3l-7 -30l-4 -7l-2 -12l-3 -7l-10 -20l-2 -13l-6 -14l-4 -17l-14 -35l-14 -30l-12 -26l-2 -21l-4 -5l-1 -7l-5 -8 l-3 -12l-3 -4l-1 -2l-21 -18l-2 12l-2 25l-4 16l-1 11v47l6 71l-1 9l4 13l8 63l25 133l15 48l12 27l1 11l15 46l10 19l13 30l13 28l4 4l4 9h4l3 3h5l3 2l13 1l18 -7v-2l6 -2l11 -41l-5 -38l2 -3l-4 -6l-2 -28l-4 -30l-15 -51l-6 -23l-5 -4l-1 -14l-5 -9h49l41 9h15l21 3 l12 50l21 63l2 10l4 4l-1 2l14 44l26 60l10 28h3l2 6l6 1z" />
<glyph unicode="I" horiz-adv-x="237" d="M228 561h7l14 -6l8 -11l3 -24l-3 -50l-13 -29l-14 -30l-36 -103l-33 -90l-8 -30l-8 -16l-3 -17l-7 -15l-4 -17l-10 -60l-7 -30l-6 -33l-14 -36l-13 -14l-16 -9l-11 6l-3 46l2 6l-2 8v29l2 23l-2 5l-1 49l1 36l6 28l7 39l7 22l13 61l6 12l11 37l18 53l1 14l9 14l9 21 l13 22l1 7l21 36l5 3l9 17l20 18z" />
<glyph unicode="J" horiz-adv-x="598" d="M701 597h14l48 -7l39 -12l7 -5l-14 -10v3l-5 -4l-10 -2l-7 -6l-17 -4l-45 -28l-31 -14l-7 1l-9 -7h-7l-17 -11l-5 1l-10 -5l-2 2l-16 -7l-4 -7l-9 -5l-39 -12l-8 -5l-31 -10l-30 -6l-23 -7l-8 -35l-2 -19l-8 -24l-19 -82l-4 -5l-8 -20v-5l-9 -11v-6l-3 -2v-4l-16 -40v-13 l-5 -16l1 -4l-6 -13l-3 -12l-5 -7v-17l-9 -43l-4 -5l-1 -8l-4 -6l-1 -10l-7 -26l-16 -31l-1 -13l-16 -22h-2l-11 -12l-2 -6l-19 -10l-21 -8h-18l-13 -3l-2 -2l-8 3h-11l-8 -3l-11 3l-42 10l-5 6l-17 5l-9 5l-23 18l-9 16l-8 5v8l-8 19l-6 7l-3 17l-3 2l1 6l-3 4l6 8l-3 3 l-1 5l4 25l7 11l9 28l9 16l2 8l13 22h3l-2 -16l-3 -3l-2 -8l4 -3l1 -9l-5 -12l2 -10l-2 -16l8 -7l5 2v-24l-5 -12h5l3 3l3 -2l14 -21l15 -5l5 -5l14 -7l2 -3h9l23 -12l12 -4l6 -4l31 3l9 6l19 7l10 10l10 43l8 16l12 63v28l10 95l4 8l12 71l4 7l4 34l16 64l-22 -3h-14 l-85 -9l-31 -8h-30l-4 2l-5 10l-2 10h4l1 5l14 14l14 5l74 37l3 -1l15 6l4 -5l4 2l5 8l-4 4l15 4l4 -3l14 4l18 10v3h33l3 3l-1 11l4 1l8 29l3 2l10 -4l-2 10h2l4 -5l4 2l3 16l8 -6l13 -20h12l12 4l19 -2l2 -2l15 2l1 -2l15 2l5 3l14 2v-3l-7 -5l6 -3l23 6l24 2l5 4h12l17 8 l-2 2l2 5l16 7h14l23 5l5 3l12 -1z" />
<glyph unicode="K" horiz-adv-x="572" d="M59 -5l-8 4l-2 9l-10 6v20l6 17l16 82l15 63l4 10l2 16l28 79l4 19l17 39l7 10l3 18l13 25l2 19l8 16l1 14l18 34l11 14l14 13l10 2l29 7h21l12 -12l1 -12l-5 -51l-3 -10l-7 -25l-6 -11v-7l-4 -14l-17 -37l62 37l19 7l60 33l4 4l101 65l32 21l12 3l6 5h4l14 6l4 -2l8 1 l45 15l10 -6l1 -10l-20 -21l-14 -10l-17 -17l-16 -25l-16 -19l-28 -22l-31 -23l-32 -25l-67 -44l-32 -12l-8 -5l-19 -9l-6 1l-9 -6l-12 -8l-14 -8l-15 -5l-19 -14l-12 -5l-6 -12l9 -8l27 -17l2 -3l10 -4l64 -39l24 -16l90 -71l11 -18l10 -4l25 -25l16 -26l-1 -14l8 -9l3 -6 h3l1 -4l3 -2l2 -5l-6 -3l-2 -5l-3 1l-4 -6l-8 3h-12l-6 8l-6 -3l-5 3l1 13l-7 -12h-4l-27 15l-18 8l-71 41l-15 6l-142 77l-5 5l-7 3l-29 24l-13 -38l-9 -12l-7 -15l-18 -42l-21 -40l-15 -18h-15v9z" />
<glyph unicode="L" horiz-adv-x="331" d="M318 -3h-4l-3 -4l4 -1l1 -7h-4l-9 -5l-31 -11l-2 1l-32 -10l-33 -5l-41 5l-35 12l-28 17l-24 21l-15 22l-3 9h-2v4q-3 4 -8 23v4q-1 5 -3 17l-2 4q0 5 1 8l-2 10v11q1 6 1 11v4q2 8 4 25.5t6 40t11 50.5q7 33 11.5 52t8.5 32.5l16.5 58.5l29.5 110l5 12q6 12 11 28t5 24 v4q1 4 2 11.5t2.5 15t5 15t7.5 11.5v10l2 1l12 12h5q2 -1 6 -1l6 -4l11.5 -8t13 -12t13.5 -16.5t10 -20t4 -24.5q0 -16 -1.5 -27.5t-4 -21l-8 -32t-10.5 -49.5q-11 -11 -32 -87v-6q-2 -5 -7.5 -22.5t-26.5 -69.5l-1 -1l-3 -6v-5q-25 -75 -25 -123q0 -4 -1 -6l1 -5q0 -1 1 -1 v-13l10 -40l11 -19l18 -12l20 -5l27 -2l90 6h6v-10l4 -3l-3 -3z" />
<glyph unicode="M" horiz-adv-x="660" d="M579 632q18 0 41 -19q6 -4 8.5 -8t3 -7.5t2.5 -15.5t6 -26v-36q0 -4 -2 -16.5t-3 -26.5t-1 -28l-2 -4q-7 -36 -21 -122q-3 -11 -6 -39t-10 -43v-9q-1 -2 -1.5 -5t-0.5 -5v-11q-1 -1 -2 -18.5t-7 -37.5q1 -1 1 -6l-1 -4q1 2 0 -2t-3 -14t-4 -23t-2 -23q0 -4 2 -8 q-1 -1 -1 -2q-1 -2 -1 -3q0 -8 1 -12q0 -4 -1 -7l-1 -7q0 -13 -6.5 -23.5t-8.5 -10.5l-1 -1l-8 -14l-3 -2l4 -1l-3 -6l-1 -8l-6 -8l-2 -15l-5 -3l2 -1l-3 -1l-2 -3q0 -6 -1 -9l-3 -3l-1 -6q-1 -1 -2 -1q-2 -1 -3 -1q0 4 -1 7v1q0 1 -1.5 6t-2.5 8l-1 8q0 1 -0.5 4t-1 9 t-0.5 11v3q0 3 -1 6v10l-2 3q1 1 1 7l-1 43l1 261q0 17 -4 32q0 18 3 39v6q3 13 3 28l1 4q-1 -1 -4 -3q-3 -3 -5 -4q-7 0 -30 -23l-18 -31q-1 -1 -1.5 -3.5t-0.5 -3.5l-8 -13l-8 -16.5t-8 -13.5l-5 -4q-8 -22 -12 -27v-3l-9 -17q-1 -3 -5 -10t-6 -11l-3 -5l-3 -7 q-4 -6 -8.5 -12t-7.5 -6q1 0 -12 -14.5t-14 -14.5q-7 -5 -8 -5q-12 3 -33 18.5t-25 16.5q-50 20 -61 96v36q1 7 1 23l-2 -2q-1 -3 -2 -5l-4 -7l-4 -9l-4 -15q-5 -14 -16 -35q-4 0 -22 -47l-8 -23q-8 -23 -16 -60l-9 -31q-1 -3 -1 -9q-1 -4 -3 -10.5t-19 -96.5q-2 -4 -2 -8 t-0.5 -7.5t-6.5 -14.5t-18 -29l-2 2l-1 -2q-1 -2 -2 -2q-2 0 -3 1l-6 3q-1 0 -3 1.5t-4 2.5q1 0 1 1l-4 2v3q-11 40 -11 59q0 1 0.5 8t1.5 13q5 10 6.5 24t0 19t13 77t45.5 197q2 5 13.5 41t23.5 60v3l10 13l4 4q0 2 2 6.5t2 6.5l2 4q2 4 6 9.5t9.5 11t14.5 9t20 3.5 q5 0 20 -4q6 -2 10 -2t15 -9t26 -29q5 -6 9 -20.5t7 -52.5v-50q-1 -10 -1 -24v-59q0 -7 3 -40l13 23q12 22 30 39l18 33l4 4l9 17l16 29l36 63l15 24q2 3 20 33q1 2 17.5 23t28.5 42q1 4 4.5 7.5l12.5 12.5t19 24l6 4q6 7 19 7z" />
<glyph unicode="N" horiz-adv-x="612" d="M609 655q0 -4 -1 -9l-2 -8l-8 -31v-3q-1 -1 -1 -2q-1 -2 -1 -3q2 -4 3 -7q0 -13 -2 -26q-2 -15 -2 -36.5t-4.5 -61.5t-18.5 -110q1 -2 3 -8q-1 -9 -5.5 -40.5t-4.5 -42.5v-14q-12 -82 -23 -123q0 -20 -10 -53t-23 -33l-6 -4q-8 -8 -40 -13l-1 -1q-6 -5 -10.5 -10 t-9.5 -9.5t-10 -7.5t-11 -4.5t-13 -1.5q-1 0 -6 2t-8 3.5t-9.5 8.5t-14.5 18l-24 29t-22 28.5t-21 31t-21 35.5t-21 43l-6 9l-30 66q0 1 -3.5 10t-7.5 17t-10 16t-13 9q-6 -19 -15 -60q-13 -36 -26 -92v-6q-13 -31 -32 -127q-4 -4 -6.5 -18.5t-12 -31.5t-28.5 -30l-1 1 l-6 -5q-5 -6 -13 -6q-1 0 -3 2l-4 4q-11 5 -11 30q1 0 0.5 15t5.5 46q6 17 9 29.5t5.5 28t5.5 27.5l7 31l19 94l27 131q0 1 2.5 15l5 27.5t7 31.5t9.5 31t12 22.5t14 9.5h6q3 1 6 1q8 -1 13.5 -3t7 -2.5t7.5 -7t7 -7.5l21 -26q9 -24 60 -126q2 -9 4 -13t5 -9t15.5 -32.5 t30.5 -74.5q20 -31 35 -76l8 -12q2 -5 8 -15q3 3 32 16l8 7q0 1 3 19t13 48q10 29 43 219q0 1 3 16.5l7.5 37t15 61t23.5 83.5q0 36 53 48q10 0 12 -16z" />
<glyph unicode="O" horiz-adv-x="564" d="M539 234q0 -5 -1 -9l-3 -21q1 0 2 -1q0 -2 -14 -44q-11 -31 -17 -44.5t-14 -24t-22 -26.5v-4q-23 -23 -65 -53q-6 -2 -12.5 -6.5t-13.5 -8.5t-29 -11t-58 -15h-9q-1 0 -6 -1.5t-7 -1.5q-78 0 -148 49q-31 22 -56 63q-17 45 -25 85q0 -1 1 -1q-1 3 0 7t2.5 22t1.5 36l9 36 q1 1 10.5 26t25.5 52q48 80 88 120l8 10q4 2 11 9q23 22 51 22l11 7q4 0 6.5 1t6 3t16 6.5t32.5 9.5l2 2h9q1 1 2 1q2 1 3 1q4 0 16 -3h10q25 -18 30 -22q2 -1 15.5 -18t28.5 -27q11 -14 17 -17l15 -15q3 -5 13 -20l7 -7q4 -10 7 -15v-4q2 -2 7 -11.5t11 -17.5l3 -10 q12 -54 16 -91v-13q0 -1 3 -3zM449 249q0 45 -11 76.5t-42 62.5l-24 24l-35 21q-11 -8 -25 -8h-30q-6 0 -49 -41q-6 -3 -11.5 -9.5t-12.5 -17t-16.5 -26.5l-22.5 -38q-1 -4 -13 -28t-21.5 -52t-9.5 -54q-3 -15 0 -31t25 -48q28 -35 106 -35q-3 0 6 1t21.5 2t16.5 2 q43 6 85 48l24 36q9 10 32 67v6q7 22 7 42z" />
<glyph unicode="P" horiz-adv-x="419" d="M452 398q0 -1 -2 -12t-14 -29.5t-37 -40.5l-4 -5q-27 -24 -74 -53l-13 -6q-18 -13 -87 -38l-7 1q-3 -6 -29 -34t-35 -27q-4 -28 -9 -40q-2 -5 -6 -22t-19 -65l-3 -7q-3 -7 -20 -50q-1 0 -5 -6l-3 -7h-2q-3 -10 -14 -19.5t-18 -8.5q-21 14 -23.5 50.5t2.5 89.5 q23 135 64 305q15 30 20 75v5.5t-1 5.5l-1 14q-2 14 -1 17l1 3q-3 3 -5 12q4 13 24 25q12 11 46.5 27t58.5 13q8 -2 43 -2q36 -5 71 -19q26 -15 44.5 -24t33 -30t22.5 -58q-1 -1 -1 -4l3 -7q0 -1 0.5 -4t0.5 -5q0 -6 -2 -16q0 -2 1 -4zM391 395q1 19 -4 30q-5 13 -48 40 q-23 12 -45 12q-6 1 -10 0h-22q-41 5 -47 -42q0 -2 -0.5 -8t-0.5 -10l-5 -42q-17 -70 -26 -126q5 0 27 6q46 16 65 26.5t57 39.5l23 21q7 5 20.5 22t15.5 31z" />
<glyph unicode="Q" horiz-adv-x="577" d="M311 601l7 -3l8 -2h18l7 -6l8 -1l5 -7l-10 -12l2 -10l5 -4v-7l-2 -4l-2 -19l-6 -17l-12 -5l-25 -5l-14 -16l-33 -43l-7 -17l-16 -25l-44 -94l-22 -59l-10 -23l-11 -34l-12 -69l-4 -28l8 -19l1 -28l33 -14l34 -3l41 21l12 11l24 13l29 30l47 47l-7 12l-31 44l-14 26 l-15 43l-10 38l-8 40v45l-2 6l20 14h24l3 -8h16l3 -3l8 -29l9 -14l21 -45l9 -14v-5l4 -3l20 -32l6 13l9 38l13 65l2 24l2 5l4 61l-4 39l3 2l8 -22l7 -10l2 -2v-24l5 4l2 -4l-2 -20h6l2 -7l-3 -20v-32l6 -7v-8l-2 -11l6 -6v-14l-5 -20l-5 -7v-6l3 -8l-7 -14l-1 -10l7 -17 l-5 -27l-15 -27l42 -81l26 -46l20 -39l19 -38v-3l1 -18l3 -2l-1 -4l-6 1l-3 -11l-14 -9l-14 8l-5 -4l-8 5l-18 7l-1 6l-5 -2l-29 25l-34 37l-33 43l-3 -2l-2 4l-3 -5h-4l-4 -13l-24 -30l-11 -8l-5 -10l-20 -13l-14 -9l-27 -15l-28 -8l-8 -6l-12 3l-2 -4l-10 1l-12 -6h-9h-33 l-37 15l-23 11l-6 6l-24 30l-16 30l-13 41l-10 56l4 83l7 30l12 33l13 33l69 121l22 29l3 9l29 34l45 49l12 6l6 8l27 22l3 4h13z" />
<glyph unicode="R" horiz-adv-x="532" d="M557 75l-2 -2q-2 -2 -11 -4.5t-13 -6.5q-8 0 -9 1l-2 -3q-3 -1 -8 -1q-1 1 -3 1h-5q-4 5 -31 15t-41 17l-18 6q-20 7 -91 43l-6 3q-12 5 -38 17l-37 17l-21 7l-9 -3q-44 -28 -64 -31l-3 -13v-8q0 -7 -17 -56v-3l-12 -45v-1q-4 -6 -10 -17l-13 -23l-8 -8q-1 -1 -11 -1 q-2 0 -11 7.5t-19 20.5l-2 2v14q-2 2 -3 5v41q1 3 1 10q0 8 -1 12q4 11 8 56v2q0 9 8 38q8 27 9.5 42.5t5.5 29.5q3 10 15 60t25 92v6q0 1 2 4t3 5v7q0 11 12 38q3 5 3.5 9.5t12.5 11t35 12.5q2 -1 5 -1.5t5 -0.5h12q5 2 14 3q21 13 64.5 34t57.5 21l7 1q7 2 17 4t20 3.5 t14 1.5q21 0 48 -10q-1 1 2 -0.5t8.5 -4.5t12.5 -8.5t14 -14t13 -18t9.5 -23t3.5 -28.5q0 -21 -4 -29v-3q-9 -23 -13.5 -29t-29.5 -24.5t-79 -53.5l-47 -28q-17 -11 -17 -16q0 -3 2 -3l-9 -8q-7 -1 -7 -17v-5q-3 0 -3 -10l-1 -1q0 -2 20 -12.5l84.5 -44.5l140.5 -77 q6 -4 10 -14.5t5 -10.5v1zM424 479q-1 0 -10 2.5t-14 3.5l-15 -2l-9 -3q-36 -10 -44 -10q-1 -1 -23.5 -12.5t-57.5 -35.5q-9 -6 -42 -76l-11 -44q41 11 74 25q1 0 14 5t37 24t66 61q15 15 25 36.5t10 25.5z" />
<glyph unicode="S" horiz-adv-x="479" d="M461 532q9 -50 8 -50v1l-4 -12q-3 -7 -9.5 -9t-11 -0.5t-5.5 -0.5l1 -2q-6 -1 -22 -1q2 0 -2 1h-4q-21 4 -21 6q0 4 -13 6.5t-14 3.5q-3 -2 -12 -2t-15 2q-1 -1 -4 -1.5t-4 -0.5q-14 -4 -29 -9l-7 -5q-4 -2 -7 -5l-11 -6l-1 -2l-3 -3q-16 -12 -38 -45l-4 -7 q-5 -11 -10.5 -20.5t-8.5 -25.5t-1 -36q0 -5 4 -12.5t10.5 -17t8.5 -13.5q24 -21 67 -44.5t89 -55.5q8 -10 19.5 -20t22.5 -30.5t14 -43.5q5 -41 -5 -67l-26 -39q-29 -20 -83 -25q-25 -4 -56 -2q-28 0 -38 2q-1 0 -10 1.5t-19 3.5t-15 5q-6 0 -9 1l-1 -1l-4 2q-12 2 -16 4 l-8 2q-9 2 -17 4t-16 5.5t-9 6.5l-7 -3q-2 1 -5 3q-1 1 -2 1l-11 10h-4q-3 0 -5 1h-6q0 2 -1 2h-5q-1 0 -3 2t-4 3l-6 2v4l11 21l-2 2q0 6 15.5 17.5t38.5 11.5q11 0 25 -5t16 -5h6q34 -13 68 -19q16 -10 51 -10q9 0 21 11t12 21h4l10 6l2 8v7l-5 8l-6 6l-12 11l-7 3l-10 7 l-20 11l-8 6q0 2 -5.5 6t-5.5 6q0 6 -9.5 13.5t-32 21.5t-39.5 27l-14 17q-23 17 -32 35t-20 63q3 14 4 17q-1 1 -1.5 4t-0.5 4l26 91q0 8 11.5 20t11.5 16q2 3 4.5 9.5t12 14.5t34.5 24q42 29 59.5 36t38.5 12q12 4 38 8t37 7q3 0 5 -1q2 1 8 1q5 0 8 -1q2 1 5 1t4 -1 l12 -5q16 -4 39 -32z" />
<glyph unicode="T" horiz-adv-x="483" d="M590 520l-8 -9q-7 -4 -28.5 -10.5t-42.5 -15.5h-21q0 -1 -3 -3t-4 -2h-2q-1 1 -2 1q-2 1 -3 1q-6 0 -11 -1l-3 -3q-1 0 -4.5 1.5t-5.5 2.5q-3 -1 -13 -3l-6 -3q-13 0 -22 -1l-5 -1h-24q-8 0 -13 -1h-6q-5 -5 -8.5 -19t-15 -69.5t-27.5 -122.5q0 -1 -18 -81.5t-25 -103.5 q-12 -42 -12 -47v-21v-3q0 -7 -5 -27v-6q-4 -11 -7 -14q-1 -1 -15 -9.5t-15 -8.5h-1q-5 -4 -11 -5h-3q-1 -1 -2 -1h-2q-7 11 -7 64q1 1 1.5 3.5t0.5 3.5q0 2 -1 5t-1 5v28q0 4 2 16t2 19q-1 1 -1 5q1 21 7 73v6q0 1 1.5 6t2.5 9q0 3 -1 5q4 17 5 32l2 4q1 11 3 21l6.5 31 t9.5 51q0 1 5.5 29.5t22.5 91.5q-2 0 -5.5 9.5t-4.5 9.5q-3 9 -8 11t-17 2q-1 -1 -6 -1h-25q-132 0 -149 57q0 4 9 10.5t15 6.5q3 0 9 -3q16 6 46 6h17q10 2 17 3h3q5 0 8 1q6 -4 12 -5q2 1 7.5 1.5t8.5 0.5l45 -3q36 3 70 3q9 0 18 -0.5t24 -1.5l29 -2h-1l45 4h9 q9 -1 19 -1h28q15 0 35 -1q4 0 23 -3.5t25 -3.5q2 0 15 -10.5t13 -12.5z" />
<glyph unicode="U" horiz-adv-x="551" d="M590 496q0 -4 -3 -20l-3 -16q-2 -10 -10.5 -37.5t-12.5 -43.5l1 2l-6 -21q-5 -21 -22 -56q-2 -10 -7.5 -20.5t-18.5 -37.5t-29 -65q-7 -6 -26.5 -42.5t-29.5 -51.5l-7 -11q-8 -11 -19.5 -23t-28.5 -24l-11 -12q-1 -1 -7.5 -6l-12.5 -9.5t-7 -4.5q-38 -33 -59 -31 q-6 3 -7 4q-12 -10 -53 -6q-30 4 -67 37t-59 93q0 3 -6.5 21t-5.5 20q0 3 -4 22.5t-4 24.5q-4 33 -1 59l2 11q1 11 3.5 25t6.5 32.5t10 38.5t12 37q22 57 45.5 89t35.5 30q4 -8 4 -9l3 6q0 -3 1 -3t1 3q-1 0 -2 -2l-1 -2q1 0 2.5 -3t0.5 -4q0 -2 -1.5 -6t-1.5 -7q0 -4 4 -15 q0 -1 -0.5 -3t1 -2t10 -12t21.5 -33q4 -13 6 -45l-2 -19l-6 -24l-1 -12l-6 -40q-2 -20 -2 -34q2 -2 2 -29t1 -28q2 -1 8 -24.5t12 -24.5q1 0 5 -15.5t7 -15.5h2q3 -1 6 -11t4 -10q1 3 3 3t4 -4.5t4 -4.5l1 -1q14 -7 17 -7h2l2 -1q1 -1 4 -1q12 -1 21 1.5t25.5 21t35.5 55.5 q-1 -2 1 1.5t5.5 11.5t8 20.5l9 26l9.5 29t9 29.5t6.5 27.5t3.5 23.5q1 14 -1.5 23t-10.5 30l-1 14l1 3q0 5 4 5l28 56q-1 0 25 35.5t25 36.5l10 4q10 5 15 4q1 -1 5 -1q2 -1 6 -1h6t4 -2l2 -1q3 -1 13 4.5t11 5.5q3 0 5 -6.5t3 -6.5l3 2q2 0 2 -2q0 1 -1 1v-1q11 -2 8 -18z " />
<glyph unicode="V" horiz-adv-x="469" d="M512 684q-2 -2 -21 -55l-22 -66q-14 -22 -50 -130l-6 -27q-10 -45 -45 -158q-7 -18 -7.5 -22.5t-0.5 -7.5t-17.5 -42l-57.5 -123q-15 -46 -51 -46q-10 0 -41 7l-5 2q1 0 -1.5 1t-10.5 6t-15.5 12t-15 19.5t-10.5 27.5q-7 29 -11 53t-10 47q-2 14 -3 23.5t-3.5 26 t-11 81.5l-21.5 163l-5 16q-4 17 -4 21q0 18 19 18l1 -1q1 0 6.5 -2.5t10.5 -6t13 -10t14.5 -14t14 -19t13.5 -24.5t10.5 -30.5t6.5 -37.5l8 -35q3 -15 6.5 -40.5l4.5 -32.5q-1 -1 -1 -2q7 -42 9 -61q0 -23 5 -45l8 -32q6 0 14 13.5t15 31l26 64.5l36 86l5 10q4 11 25 63 l43.5 107l24.5 60q15 30 22 51q1 2 7 15t11.5 22t8.5 9q-1 0 19 8l20 9h3q3 0 13 3z" />
<glyph unicode="W" horiz-adv-x="609" d="M700 631l2 -4l-2 -4h-3l1 -5l-6 -6v-6l-8 -9l-2 -9l-8 -20l-11 -44l-5 -6l-18 -46l-12 -16l-7 -27l-35 -90l-9 -12l-7 -18l-10 -33l-13 -24l1 -4l-13 -38l-12 -13l-10 -16l-6 -17l-14 -25l-31 -70l-18 -28l-11 -25l-6 -2l-1 -7l-5 -5l-6 -13l-11 -9l4 -5l-8 -9h-7v-3 l-15 -5h-9l-3 4l-14 4l-6 11l-4 25l-16 63l-10 96l5 55v101l15 136l-4 16l-12 -18h-5l-7 -14l-14 -17l-20 -38l-14 -36l-10 -27l-18 -31l-3 -23l-5 -4l-2 -23l-6 -8l-15 -69l-8 -22l-3 -19l3 -5l-6 -9l2 -15v-35l-5 -22l-6 -12v-6v-16l-7 -13h-11l-13 -7l-11 -12l-20 -2 l-5 3l-30 18l-1 18l-19 56l-24 120l-1 18l3 17l-5 18v33v41l4 40l6 30l10 73l3 8l5 19l13 42l9 9l18 2l15 -4v-3l13 -4v-12l5 -58v-23l5 -23l14 -112v-80l10 45l14 34l28 52l10 15l15 34l21 31l22 39l17 16l1 3l21 21l17 6h32l23 -6l12 -33l3 -19v-15l-7 -96v-43l-2 -31 l-9 -88l3 -5l-5 -6l4 -8l-6 -61l4 -4l-2 -11v-29l10 15l36 75l43 103l13 25l13 17l7 24l15 24l2 10l9 16l15 34l5 4l66 108v16l35 49h3l4 12l7 9v3l27 30l6 -1v-3z" />
<glyph unicode="X" horiz-adv-x="464" d="M174 545h2l17 -13l17 -27l23 -42l18 -41l15 -29l48 59l48 49l29 22l2 4l11 5l16 2l16 -1l5 -4l15 -24l5 -15l-2 -21l-3 -3l-8 -22l-13 -27l-12 -16l-1 -4l-8 -9l-41 -58l-6 -4l-30 -43l-2 -14l24 -48l34 -72l50 -92l17 -28l-1 -12l-8 -3h-6l-10 -10l-11 12l-143 163 l-16 6h-5l-54 -67l-44 -50l-18 -25l-15 -14l-20 -30l-3 -2l-24 -34l-12 -3h-8l-12 -6l-3 -4h-19l3 4l9 39l34 87l30 59l46 83l4 4l6 13l43 66v5l-17 33l-17 37l-23 75v39v35l9 12l8 2l10 -6l2 3z" />
<glyph unicode="Y" horiz-adv-x="411" d="M482 630l9 7l14 7l1 -9l-14 -24l-6 -14l-20 -30l-7 -14l-143 -212l-5 -12l-17 -28l-7 -8l-9 -17v-3l-4 -3l-6 -10l-11 -19v-5l-12 -77l-4 -8l-8 -66l1 -9l-8 -49l-3 -6l-1 -12l-4 -14l-6 -15l1 -7l-4 -8l-11 -8l-36 -4l-24 8l-12 26l-6 30v69l4 49l7 32l14 73l3 27 l-47 61l-23 41l-19 29l-9 27l-4 45l8 15l19 18l9 -5l4 -5l6 7l22 -8l13 -13l33 -41l17 -25l32 -54l11 -25l13 15l16 30l20 28l3 2l7 12l55 67l64 73l27 26l29 26l17 8z" />
<glyph unicode="Z" horiz-adv-x="697" d="M454 566q37 0 54 -4l4 -2q5 -1 14.5 -6t20.5 -13q1 -2 4.5 -5.5t5 -12t1.5 -28.5l-2 -5q-2 -5 -6.5 -14t-10.5 -19.5l-14 -23.5t-16 -23l-9 -12l-28 -32l-13 -15q-35 -40 -187 -178q0 -1 1 -1t2 -1q3 1 11 3l1 -1q1 -1 2 -1q-1 -1 -1 -2q1 -1 4 -1h12l6 -1q5 -2 11 -4 t8 -4q24 8 67 18q15 2 37.5 8.5t85.5 16.5l32 5q3 0 19 1t30 1h17h11q12 0 21.5 -2.5t15.5 -8.5l-1 -1q0 -2 -1 -2l-2 -2q9 1 45 7l3 -3q3 -2 5 -2l-31 -15q-6 -3 -11 -5q1 0 1 -1q0 -3 -22 -12q0 3 -1 3q-3 0 -15 -21.5t-28 -21.5q-2 -1 -52 -16l-5 -5q-3 -1 -15 -4.5 t-29 -7.5l-99 -36q-24 -16 -89 -32q-28 -18 -142 -45l-13 -4q-24 -3 -30 -3t-28 5l-24 6q-25 11 -44 38l-7 15q0 9 23 45q10 9 13.5 12.5l5 5t2 2.5t6 7t16.5 16.5l34.5 33.5l57.5 55l63 60q13 10 52 52q19 15 36.5 31t56.5 60q16 13 24 26h-1q-7 0 -17.5 4t-25.5 4 q-8 0 -19 -3t-33 -9.5t-41 -11.5q-10 -6 -24 -9.5t-87 -15.5h-13q-23 6 -44 27h1l-4 4q1 3 1 11l-3 21l-2 10v-2l20 10q0 2 11 10t15 8q7 1 135 41q3 0 4 -1q9 5 83 20z" />
<glyph unicode="[" horiz-adv-x="361" d="M410 630q-2 -3 -9.5 -7.5t-5.5 -7.5v-1l-3 -3q-7 -24 -31 -43l-23 -17q-6 -3 -16 -9q-11 -4 -35 -17q-12 -24 -24 -42q-52 -119 -70 -172l-4 -4q-1 -2 -1.5 -7t-0.5 -8q-2 -3 -5.5 -10.5t-5.5 -12.5q-29 -86 -41 -141q-7 -28 -8 -70q0 -19 17 -26q9 -6 25 -14 q14 -6 14 -8q17 -8 44 -34l3 -6q-1 -2 -1 -6v-3q-3 -3 -3 -10v-5q-3 -6 -3 -14l-5 -27l-3 -3q-39 -4 -75 16q-25 15 -58 51q-14 24 -17 55q-1 9 -1 34q0 5 2.5 22t2.5 21q1 30 31 144q28 102 43 142l57 139q-2 2 0 6l-4 8q0 15 14 38q2 7 9 17l8 8q25 19 36 29q12 15 29 31 l9 3h6q4 0 7 1q10 9 29 9t23 -4q3 -1 6 -3l6.5 -4.5t6.5 -3.5l24 -24q1 -1 1 -7z" />
<glyph unicode="\" horiz-adv-x="409" d="M129 692l12 -8l20 -15l20 -28l40 -72l39 -78l46 -118l33 -103l25 -97l12 -74l9 -87l-1 -61l1 -29l-5 -17l-11 -5l-9 -1l-11 17h-3l-5 11l-5 29l-8 21l-14 66l-4 13l-9 7l-7 29l-4 8l-6 26l-4 13l-13 43l-8 10l-2 20l-4 16l-4 3l-10 32h-3l-13 43l-46 123l-36 77l-23 54 l-19 49l-9 32l2 12v12l4 12l20 15h13z" />
<glyph unicode="]" horiz-adv-x="359" d="M201 673q2 3 5 6l32 8h22q9 2 24.5 -9t18.5 -21l3 -3l2 -1l6 -3q4 -4 6 -8q9 -28 10 -41q14 -38 16 -43l3 -11q1 -10 -1 -19q2 -26 -6 -40l-8 -5q-1 -3 -3 -5q-7 -71 -20 -149q-6 -41 -34 -144q-29 -109 -45 -141q-14 -29 -17 -39q-8 -15 -18 -29q-19 -28 -42 -39 q-51 -16 -81 -16q-35 0 -68 24l-1 4l9 26q3 6 5 14l2 4q4 6 3 10l1 3q1 1 3.5 4t4.5 5q16 4 34 6t21 2q12 1 32 -1q2 2 13 0q19 -1 27 14q19 37 28 65q19 61 35 142q2 20 2 26q4 7 6 14l-1 5q12 61 25 184v49q-7 12 -22 32q-3 6 -9 16q-9 21 -11 26q-9 23 -9 31l3 21l-1 5 q2 4 2 5l-4 7q-4 7 -3 9z" />
<glyph unicode="^" horiz-adv-x="765" d="M286 323l49 -2l23 -5l14 -7l9 -15l10 -24l-1 -11l-3 -15l-7 -11l-3 -3l-33 -48l-74 -81l-9 -8l-9 -6l-19 -18l-3 -10l89 33l65 18l83 13l76 4l75 -5l41 -5l78 -15l51 -14l52 -13l9 -12l1 -8l-20 -6l-4 -2l-13 -3l-29 7l-24 2l-34 -1l-14 4l-4 -6l-68 6l-8 -4l-51 3 l-18 -5l-23 -1l-10 -3h-12l-32 -6l-25 -2l-34 -9l-16 -5l-34 -11l-12 -3l-42 -17l-76 -27l-66 -27l-44 -17l-37 -9l-21 1l-13 -3l-11 5l-1 11l-4 3l-3 10l3 14l9 23l25 24l231 248l-66 -9l-76 -16l-92 -28l-24 -3l-8 9l-9 -2l-10 10l-3 8l1 19l12 19l13 7l12 6l10 10l12 1 l98 29l72 12z" />
<glyph unicode="_" horiz-adv-x="500" d="M502 -173l2 -6l-10 -5l-14 -5l-10 -1l1 -5l-9 2l-2 -4l-15 1l-14 -5l-1 -5h-4l-1 -3l-36 1l-8 -1l-3 1l-3 -4l-19 -1l-14 3l-1 -4l-28 2l-13 -1l-17 -5l-11 -2l-7 -2h-2l-4 1h-10l-10 -1l-7 3l-7 -1l-14 -1l-5 2l-14 -6l-8 1l-9 -2l-15 1l-14 -3l-14 1l-4 -2l-16 -1 l-8 -3l-26 -7l-15 4l-24 10l-14 -9l-5 3l-8 4l-8 9l-1 9l-6 17l2 11v9l12 12l6 11l8 2l5 -2l41 11l23 5l11 -2l31 3h22l27 3h10l2 2l4 -1l15 -1l35 -3l57 -4l147 -22z" />
<glyph unicode="`" horiz-adv-x="337" d="M287 570q-1 -8 -2 -8l-2 -2h-3l-3 -3h-2q-5 -3 -13 -3q-12 0 -27 7q-8 3 -24 10q-28 13 -49 29q-40 30 -45 33l-22 18q-8 10 -16 18q-1 1 -9 17q-7 11 -7 22l1 1q1 16 10 16q8 0 13.5 0.5t7.5 0.5t0 1q5 0 9 -1l6 -2q4 -2 7 -3l1 -1q2 0 2 -1l5 -2q3 -2 5 -5l78 -68 q1 -1 17 -15.5t24 -22.5q38 -35 38 -36z" />
<glyph unicode="a" d="M429 299q0 -1 -4 -10t-4 -12t-1.5 -13.5t-2.5 -18.5q-9 -9 -26.5 -64.5t-24.5 -73.5q-10 -22 -19 -81l-13 -83q-1 -5 -1 -16q0 -15 2 -24q-5 7 -21 24q-15 15 -19.5 28t-4.5 39q0 40 7 59q-5 6 -9 6t-10 -4.5t-13.5 -12t-25.5 -24l-39 -34.5q-5 -15 -22.5 -27.5 t-70.5 -39.5q-20 -23 -41 -23q-4 0 -19 11.5t-20 27.5q-4 15 -20.5 40t-16.5 46q0 17 10 53q11 4 28 21q3 17 11.5 32t50.5 79q10 8 22.5 28.5t33.5 38.5q46 62 77.5 92.5t55.5 30.5q16 0 41 -25q11 0 24.5 -10t40.5 -17l3 -1q3 -1 8 -3.5t10.5 -6.5t10.5 -9t8.5 -11 t3.5 -12zM316 283l-4 -1q-4 -2 -5 -2q3 -3 6 -4q1 1 3 7zM300 264q0 12 -10 12q-8 0 -31 -20q-16 -10 -40.5 -36.5l-89.5 -101.5q-65 -97 -65 -111q0 -8 7 -8t18.5 10t31.5 29.5t37 32.5q3 4 7.5 9t10.5 11l21 20.5l32 31.5q0 8 19.5 37.5t31.5 38.5q18 45 20 45z" />
<glyph unicode="b" horiz-adv-x="413" d="M421 173q-1 0 -6 -1t-6 -1q0 7 9 7q3 -3 3 -5zM439 234q0 -12 -2.5 -15t-15.5 -7q5 -5 5 -12q0 1 -3 4v-11q0 -4 -3 -4q-2 1 -6 1l3 3l-4 -3l-11 -8q6 2 14 2q-5 -2 -10 -10l-4 -9l-1 1q-1 1 -2 1t-1 -4h8q0 -1 -1 -1q4 -1 4 -6q0 -2 -2 -4q0 1 -3 4l-7 -12l-3 5l4 4 l-7 -2q0 -2 2 -5.5t2 -4.5t-2 -3q1 0 1 -2t-6 -10t-6 -10l-83 -83q-24 -14 -48 -35q1 -3 1 -14q-5 -3 -59 -40q-3 -1 -13 -7.5t-22 -11.5t-24 -7q-10 -10 -20 -10q-1 0 -19 2l-23 3l-6 7q-5 6 -12 13t-12 7q-5 12 -15 26q2 0 14 -5t15 -5t10.5 4.5t11.5 4.5q48 0 100 40 q50 37 85 84q101 90 113 153q7 7 7 8q0 2 -2 8l-4 9q-2 2 -6 2l2 4q2 4 2 5v2q-1 0 -2 -2l-1 -1q1 0 -0.5 1.5t-3.5 1.5q-3 0 -5 -1l5 -3q-1 0 -1 -1q0 -3 1 -4q-1 0 -7 -1.5t-8 -1.5t-10 3t-10 3q-29 0 -85 -21q-25 -18 -48.5 -30t-31.5 -17t-18.5 -22t-25.5 -54q1 0 1 -2 l-2 -8q-7 -10 -38.5 -52t-45.5 -67q1 -2 1 -11q-10 -15 -18 -15q-11 0 -41 24q2 5 3 5q-13 10 -13 19v27q0 12 26.5 54t26.5 47q0 35 3 43l6 6q1 12 19 41q15 25 29 78t23.5 103.5t11.5 56.5q0 1 4.5 6t4.5 9t-3 7q0 1 5 11t5 14t-3 8l9 10q8 11 8 15q0 2 -2 6q24 16 60 89 v16q2 20 23 70l-2 -238q0 -1 -3.5 -6t-3.5 -7v-10q0 -23 -8.5 -81t-16.5 -87q0 -1 -6 -14t-6 -15q0 -8 9 -14q82 73 152 73q22 0 32 -2.5t19.5 -11t16 -25t21.5 -43.5l1 -10l2 -1q5 -2 5 -14zM350 286q-2 1 -5 1q-5 0 -5 -6q2 0 10 5z" />
<glyph unicode="c" horiz-adv-x="331" d="M364 55l-14 -5l-59 -43q-30 -22 -91 -53.5t-80 -31.5q-15 0 -22 1.5t-17.5 12.5t-24.5 36q-19 23 -30.5 39t-24.5 55.5t-8 82.5q3 31 11 56l6 5q6 5 13.5 16t11.5 24q30 26 34 72q4 4 7.5 5t7 3.5t17 21t37.5 56.5q26 1 32.5 3.5t12.5 10.5q52 -22 103 -81l-2 -17 q-2 0 -10.5 -2t-11.5 -2q-4 0 -16 4.5t-16 4.5q-40 0 -97 -114q-49 -96 -52 -129q-6 -57 4.5 -76.5t54.5 -19.5q36 0 86.5 22t91.5 50q6 5 14 10t19.5 21t20.5 38l10 -46z" />
<glyph unicode="d" horiz-adv-x="507" d="M558 505q-1 -11 -2 -19t-3 -17t-5.5 -20t-10 -26.5l-16 -37t-24.5 -51.5q-28 -61 -45 -91t-31 -50.5t-26 -42.5q-3 -22 -11 -48l-9 -26q0 -51 50 -51q3 0 11 1t11 1q11 0 16 -4q9 0 17 7q0 -10 4 -27q-4 2 -7 4q0 -4 -3 -8q-44 -17 -60 -19t-26 1q-22 0 -34 21.5 t-40 85.5q-1 1 -5 1q-5 0 -10 -5q-25 -25 -70.5 -63.5t-88.5 -62.5q-3 1 -8 -1.5t-18 -18.5h-5q-57 0 -70 30q-25 32 -25 52q0 42 23 62q4 37 61 109q4 -1 12.5 6t21.5 35q12 5 18 11.5t18.5 22.5t32.5 35q17 9 42 36q-4 0 -4 1q0 3 26 9.5t29 6.5q12 0 39 -7q10 -10 55 -21 q61 146 61 147q1 13 10.5 40.5t22.5 27.5q2 0 12 -4t12 -4q4 0 6 2q6 -10 21 -20t24 -10h1zM359 275v7q-10 5 -11 5q-7 0 -16 -6l-12 -8q-21 -9 -99 -77q-6 -6 -14.5 -17t-15.5 -15q-56 -56 -90 -107t-34 -62q0 -2 3 -6l2 -4h6q51 18 57.5 22t86.5 66q4 6 12 15l15 10 q3 6 10 13q9 4 14.5 9.5t17.5 20.5t24 28q13 8 20 22.5t13 52.5q1 3 6 17z" />
<glyph unicode="e" horiz-adv-x="423" d="M399 297q0 -34 -17 -60.5t-40 -40t-50.5 -22t-43.5 -10.5t-24 -2q-76 0 -98 18q-38 -62 -38 -95q0 -8 14 -28q13 -19 20.5 -22.5t34.5 -6.5q25 -15 45 -15q34 0 94 28q26 12 56 32.5t32 20.5q3 0 7 -2q-2 -15 -9 -34l-6 -8q-7 -8 -16 -17t-23 -21.5t-31 -23.5t-36.5 -21 t-43.5 -16t-48 -6q-53 0 -131 97q-22 28 -32 68.5t-10 68.5q5 10 13 44q0 3 8 10.5t13 29.5q8 5 14 19.5t23 28.5l18 15q17 22 49 54l31 17q16 7 19 23h8q2 0 11 -7.5t11 -7.5q23 -4 47 -7l23 -4q35 -9 70.5 -39.5t35.5 -57.5zM271 312q-12 12 -18 12l-29 -18 q-32 -18 -56 -47.5t-41 -56.5q19 -6 21 -6q10 0 50 25q30 19 46.5 37t19 29.5t7.5 24.5z" />
<glyph unicode="f" horiz-adv-x="422" d="M281 253q-6 -2 -7 -2q0 9 4 10q3 -1 3 -8zM532 683l-10 -54q2 -6 8 -6h2q-12 -24 -47 -45q4 4 4 8q0 9 -16 22q-30 -14 -30 -31q0 1 -20 -27.5t-20 -30.5q0 -1 1 -3l2 -3l-27 -26q2 -2 2 -5q0 -11 -5 -20q-9 -2 -13.5 -5t-20.5 -22q7 -4 15 -4q-4 -4 -40 -56l10 -5v-7 q-7 -3 -20 -10q1 -2 1 -9l-2 -2q-2 -1 -4 -3q2 -2 2 -6q0 -9 -25 -36q2 -4 2 -9q0 -1 -17.5 -24t-17.5 -28q0 -2 9 -8q8 2 12 8l3 -2q3 -2 3 -3q0 -3 -4 -6l4 -3l22 9q3 9 17 16.5t16 12.5l4 3q5 3 12 8.5l14.5 11.5t12.5 13t5 13q0 2 -3 5q21 -19 24.5 -25.5t3.5 -23.5 q0 -10 -2 -18l-13 -18q-59 -89 -77 -93q0 10 5 10q-10 3 -10.5 17t-11.5 14q-7 0 -49 -24q-24 -13 -34 -21t-12.5 -11.5t-4.5 -14t-6 -20.5q-9 -4 -15 -32.5t-25 -44.5q1 -1 1 -4q0 -5 -10 -21q4 -1 20 -8v-5q-22 -4 -37.5 -33.5t-22.5 -68t-17 -79.5q-30 -18 -45 -65 q-4 -2 -7 -2q-13 0 -13 7q0 4 10.5 56.5t10.5 66.5q0 90 -24 166q-1 6 -41 24q-3 6 -12 12.5t-32 21.5q1 13 22 49q7 -9 16 -9q2 0 11.5 2.5t12.5 2.5q2 0 3 -1t3 -1q4 0 24 7.5t25 9.5q1 0 24.5 4.5t46 11.5t34.5 18v3q0 8 1 13q26 47 26 67q12 4 17.5 27t10.5 52 q27 22 27 33q0 5 -1 11l-1 6l12 13q12 14 12 29q0 9 -7 11q19 19 56 103q17 6 17 20q0 4 -1 7q32 50 78 140q1 0 10 6t16 10q26 -17 32 -17h3q0 1 3 1h-1q0 -6 73 -23zM145 -61h-3l-3 6l3 1zM344 185q-24 -19 -24 -28q0 -2 1 -3zM263 217q0 4 -3 7q-5 -5 -9 -8q3 0 6 1h6z M114 85h-9q-18 -3 -33.5 -16t-15.5 -27q0 -4 1 -5q-5 -6 -6 -6v4q2 2 2 -53q0 -3 -5 -10t-5 -23q0 -23 10 -33q5 4 25 54v19q0 11 10 18q-2 4 -2 6q0 3 10.5 23t17.5 49z" />
<glyph unicode="g" horiz-adv-x="481" d="M-29 80zM385 395q-1 0 -1 1q1 0 1 -1zM482 51l1 -6l-16 -18l-2 -1l-2 -4l-11 -10l-9 -8l-1 -3l-19 -16l-14 -11l-12 -8l-17 -12l-10 -6l-27 -16l-6 -2l-17 -10l-25 -14l-5 -4h-2q-5 -15 -9 -30t-6.5 -22.5t-5.5 -11.5q2 -2 -5 -26l-7 -23q0 -4 -5 -14t-5 -11l-3 -18 q-5 -5 -19.5 -29.5t-19.5 -37.5q-3 -1 -17 -22.5t-15 -21.5q-12 -24 -24 -43t-23.5 -34.5t-24.5 -30.5t-28 -29.5l-33 -33.5q-12 -4 -42.5 -25.5t-40.5 -21.5q-29 0 -42 8q-2 14 -2 24q0 27 7 55v4q0 14 6 36q107 191 197 283q9 18 38.5 48t32.5 48l2 1q-2 20 2 39 q0 2 7.5 17.5t7.5 17.5q0 6 -7 13q-11 -3 -35 -24q-62 -56 -120 -56h-25.5t-20.5 3t-17.5 11.5t-17.5 25t-19 43.5l-7 7q0 4 8 8l-6 7q-6 8 -6 10l16 14q0 1 -3 1t-5 -1l-2 -1l9 18q6 -7 10 -7q1 1 1 9q4 -5 5 -2t2 3q-4 -4 6 1l-4 5q-5 3 -4 6v15l3 -2q6 -2 7 -2q8 0 8 -1 l2 4q0 1 1 2q2 4 -1 4l4 3l2 18q5 0 14 18l1 3q2 3 1 4v8q5 1 9 16q2 7 6 13.5t10.5 13t16 15l21.5 18.5q6 10 24.5 25t19.5 24q9 4 26 19q-1 3 -1 10l41.5 32.5t41.5 28.5t39 15q1 0 11 7t13 7h47q20 0 48 -14q-1 0 -6.5 -5t-13 -9.5t-13.5 -4.5q-2 0 -4.5 1t-3.5 1 q-28 0 -56 -18t-54.5 -48l-64.5 -70q-24 -30 -130 -186q-2 -6 -7 -25.5l-8 -30.5q2 -2 2 -3q0 -2 -2 -6l-2 -4q2 0 5 7l3 7q1 0 11 -14q4 0 4 2l-2 4h8q37 0 62 11t106 64q20 9 27.5 20t18 37t26.5 52q22 50 43.5 74.5t31.5 43.5q-1 2 -1 11q2 9 22 23q11 -9 42 -27 q-6 -5 -6 -8q0 -5 5 -12t5 -9q0 -5 -7 -23q-6 -24 -11.5 -37t-19.5 -32q-26 -34 -30.5 -60.5t-20.5 -55.5q-10 -36 -19 -58h1l-1 -1q-3 -7 -9.5 -23.5t-10.5 -25.5l5 2l43 20l14 8l9 3l7 6l8 3l7 4l29 15l13 8l14 10l4 1l19 11zM137 -280l62 145q-10 -2 -59 -58.5t-53 -68.5 q-12 -1 -23 -16.5t-18 -32t-27 -69.5q-45 -67 -45 -84q5 -32 18 -32q2 0 32 33.5t36 43.5q11 17 43.5 74.5t33.5 64.5z" />
<glyph unicode="h" horiz-adv-x="517" d="M558 41q-1 -1 -4 -13t-6.5 -19t-16.5 -15.5t-34 -11.5l-33 -12q-48 0 -78 33.5t-30 56.5q0 5 4 11l-10 85v2q0 1 -4 1q-8 0 -11 -7t-4 -16t-2 -10l-10 8q-7 -8 -27.5 -53t-25.5 -55q-5 -16 -9.5 -25t-7.5 -14.5t-12 -20t-19 -33.5h-13q-7 0 -34 26.5t-29 34.5v22 q-5 5 -10 6q-19 43 -19 94v13q-1 1 -6 1l-37 -23q-1 0 -3.5 2t-4.5 3q-3 -1 -5 -5q-4 -10 -13 -20q-1 1 -6 1q-14 0 -58 -40q-6 4 -17 15q1 16 13 31t50.5 47.5t63.5 56.5q28 19 58 56q0 1 -1 4.5t-1 5.5q0 11 14 41q-2 4 -4 17l19 74q12 41 30 75q1 1 1 6t-1.5 15.5 t-1.5 11.5q0 8 18 34q7 22 36 55q-1 4 -1 17q4 18 63 121q4 3 16.5 13.5t25 18.5t29.5 16q6 0 10 -9h10l16 12l14 -8q14 21 20 21q1 0 23 -13l22 -12q3 0 4 1t3 1q15 0 27.5 -28t12.5 -55l-41 -68.5l-45 -74.5q-4 -2 -24 -14q1 -5 -4 -11t-24 -14q0 -2 6 -7l5 -4 q-3 -1 -6 -1q-4 0 -5 1q-13 -8 -13 -22q0 -6 1 -9q-9 0 -21.5 -9t-12.5 -18l3 -6h-22q-4 -19 -31 -56q-1 -4 -55 -83.5t-58 -107.5l-18 -120l-1 -6v-13q-3 -8 -0.5 -31.5t20.5 -23.5q12 0 18.5 21.5t22 66t43.5 83.5q14 10 21.5 25.5t22.5 41.5t46 56q4 10 17.5 20t23.5 10 q4 0 30 -10t29 -13q-10 -55 -29.5 -135.5t-19.5 -92.5q0 -36 33 -36q11 0 26 4q8 14 57 58q1 -2 11 -49zM430 670q-17 -3 -34 -16q-6 -10 -53 -59.5t-53 -63.5q2 -3 2 -6l-7 -19q-7 -18 -23.5 -64.5l-35.5 -102.5q82 97 146 212q23 14 40.5 61.5t17.5 57.5z" />
<glyph unicode="i" horiz-adv-x="254" d="M318 453q0 -2 -7 -14.5t-7 -14.5q-35 -32 -48 -32t-29.5 38t-16.5 59q0 17 7.5 42t16.5 25q8 0 38 -30t32 -38q0 -3 7 -17t7 -18zM197 227v-9q0 -26 -11 -45t-36 -54q-6 -28 -11 -46.5t-17 -43.5t-48 -95q-20 0 -37.5 32.5t-22.5 66.5q0 3 -8 12t-8 26q0 12 10.5 25.5 t15.5 34.5q10 33 16.5 43t41.5 45q8 8 9 22q31 20 40 20q7 0 66 -34z" />
<glyph unicode="j" horiz-adv-x="272" d="M295 439q-18 -7 -30 -7q-5 0 -33.5 25.5t-38.5 38.5q0 11 -13 28q8 8 14 8q39 0 48 -3q12 -5 31 -29t19 -36v-1q-1 -1 -1 -2q4 -9 4 -12v-10zM220 338v1l-8 -30q1 -9 1 -26q-5 -77 -37 -174q-29 -82 -50 -125q-1 -1 -2 -11t-10.5 -35t-31.5 -71q0 -10 -28 -78q0 -7 1 -12 t-4 -12.5t-16 -16.5q2 -14 2 -18t-3 -10t-8.5 -14.5t-9.5 -15.5h1v-11q0 -9 -4 -9q-1 0 -5 13.5t-5 13.5t-1 -4v-10q8 2 11 2v-8q-3 -2 -16.5 -20.5t-17.5 -20.5q8 -14 8 -20l-9 -18q-8 -18 -8 -21h-9q-22 0 -40 11t-18 31q0 8 1 9q4 7 6.5 18t3.5 20.5t1.5 19.5t0.5 11 q17 32 31 78q16 59 43 112q0 8 8.5 28t14.5 46q4 6 6.5 12t4.5 13t9.5 26.5t18.5 45.5q1 1 10 3t9 8q0 1 -5.5 8t-5.5 9t6.5 18t6.5 18q0 8 -11 8q-5 0 -28 -23l-24 -24q-24 -18 -75 -41q-2 0 -2 5q0 2 4 8.5t4 7.5t-4 5.5t-4 6.5q0 8 15 23l18 14l-2 4q20 24 88 96 q6 1 35 38.5t42 71.5q2 16 12 24t18.5 8.5t29.5 0.5q5 -2 31 -17z" />
<glyph unicode="k" horiz-adv-x="419" d="M277 588h5l13 -13l2 -31l-10 -29l-10 -17l-9 -25l-15 -27l-24 -58l-11 -22l-18 -46l-8 -20l48 25l44 15h19l26 -15l5 -14l-3 -28l-10 -14l-2 -8l-25 -18l-44 -31l-24 -12l-20 -15l-51 -27l163 -97l53 -37l5 -6l16 -12l53 -38l13 -18l1 -8l-6 -2l5 -6v-7l-13 5l-8 -1 l-11 6l-15 3l-46 20l-160 77l-84 53l-3 -8l-23 -68l-1 -13l-3 -4v-21l-5 -23l-4 -2v-9l-22 -7v-9l-13 -7l-6 3l-15 2l-3 10l-13 13l-2 14l5 13l11 53l4 8l3 16l10 36l6 26l16 46l5 28l11 25l3 13l9 23l17 50l3 3l49 113l42 77l45 68l16 18z" />
<glyph unicode="l" horiz-adv-x="318" d="M423 647q2 -14 2 -23q0 -27 -7 -55v-5q0 -12 -6 -36q-107 -191 -197 -283q-9 -18 -38.5 -47.5t-32.5 -47.5q-3 -5 -14.5 -13t-18.5 -19t-7 -29q0 -15 4 -23l4 -10q28 -33 87 -33q36 0 59 17q7 -1 7 -5q19 8 27 8q27 0 33 -30q0 -6 -1 -8l-1 -4q-13 10 -32 10 q-9 0 -67 -15q-33 -17 -88 -19l-18 -1l-7 2q-63 6 -83 52q-3 6 -6 18t-5 13q-6 0 -19.5 -6.5t-15.5 -6.5h-1q-9 -4 -32 -16l-27 -14h-14q-17 0 -22 14q73 41 79 44v-1q2 3 15 11t23 16q6 5 14 18t11 16l7 40l4 12q1 3 3 10q1 4 2 7q0 1 1.5 10.5t6 21.5t12.5 31l1 7 q7 14 11 25l11 29l6 8q3 22 20 41q8 30 36 74l4 12l13 25q2 0 5 3l5 13l53 62q4 11 19 23l8 -1q22 30 45 54q38 13 67 13q43 0 55 -9zM317 453q45 67 45 84q-5 32 -18 32q-2 0 -32 -34t-36 -43q-12 -18 -44 -75.5t-33 -63.5q-1 -4 -31 -75l-31 -71q10 3 59 59.5t53 68.5 q17 1 29 24t39 94z" />
<glyph unicode="m" horiz-adv-x="673" d="M659 247q0 -4 -1 -7q-21 -25 -52.5 -97.5t-31.5 -98.5q0 -18 27 -26v-11q-2 -1 -17.5 -17.5t-16.5 -16.5q-8 0 -15.5 12.5t-25 37t-41.5 44.5l-47 -36.5l-35 -28t-21.5 -14.5t-16.5 -6q-16 0 -46 61q1 -1 -3 3.5t-11 13.5l-14 18.5t-12.5 20.5t-6.5 18q3 23 3 69l-5 5 q-23 -25 -36 -45l-49 -82q-5 -6 -28 -39.5t-46 -57t-65 -55.5q-10 1 -13 25q-5 38 -18 53.5t-13 21.5q0 7 31 138l13 16q42 121 75 191q27 55 44 55q13 0 29.5 -14.5t16.5 -27.5q0 -4 -10 -25q-7 -13 -24.5 -69.5t-41.5 -116.5v-8v-1q0 -1 5 -1q14 0 25 14q5 9 9.5 19t8 15 t6 9.5t13.5 17l20 23.5l35.5 42.5l51.5 60.5q10 0 25.5 10t21.5 10q4 0 19.5 -5t34.5 -21t19 -38v-5l-55 -192q0 -12 11 -12q8 0 52.5 47.5t54.5 63.5l7 19q7 19 16.5 37t16.5 18q2 0 4 -1.5t4 -1.5t18 6t20 6l12 -5q13 -4 28.5 -10.5t28 -14.5t12.5 -14z" />
<glyph unicode="n" horiz-adv-x="398" d="M456 8q1 -1 0 -5t-1 -5q-3 -17 -6 -21q-14 -16 -21 -22q-6 -4 -11 -9.5t-11 -10.5t-12 -8.5t-12 -8.5q-4 -3 -8 -3t-8 -2q-3 -1 -9 -4t-12 -5q-3 -1 -13.5 -4t-15.5 -4q-4 0 -10.5 -1.5t-8.5 -1.5q-14 0 -30 14q-7 5 -25 35q-17 25 -22 43q-7 37 -7 44q0 5 1 8l-4 12l2 5 l-2 14v55l-5 3l8 20l-1 8l3 4v30l1 -14q0 3 0.5 13t0.5 17q1 6 5 14.5t4 10.5q-1 5 -10 5q-10 0 -21 -14l-18 -25l-27 -53l-2 -9l-12 -22v-8l-6 -8l-14 -30l-11 -15l-8 -2l-2 -2v-3h-3q-4 -4 -4 -5q-28 -42 -40 -54q-16 -15 -32 -15q-4 0 -7 12l-5.5 11.5t-3.5 14.5 q2 8 7 25t7 27l5 29q5 28 9 45v19q1 4 7.5 17t8.5 23q0 5 6 33q1 5 -0.5 14.5t-0.5 13.5q2 7 9.5 18.5t9.5 17.5q10 21 20 39q21 37 23 39q15 15 22 15q4 0 6 -15q3 -28 2 -37l-6 -23.5t-5 -21.5q-2 -11 -6.5 -22t-6.5 -23q-2 -10 1 -24l2 -14q0 -12 3 -12q5 0 18 13l35 41 q10 13 24.5 36.5t21.5 32.5q8 10 20 21.5l14 13.5q37 39 42 43q19 14 32 14l5 -13l6 -15q-5 -18 -8.5 -35.5t-7.5 -35.5q-2 -6 -16 -71q-8 -33 -7 -42q0 -2 11 -46q2 -8 8 -34l9 -40q3 -15 4 -31l2 -16q10 -20 17 -25q3 -2 5 -8t7 -6q2 0 8 3t10 4q3 1 12 1.5t14 2.5t10 5 t8 4q4 1 10 -1.5t8 -2.5t6 2.5t5 2.5z" />
<glyph unicode="o" horiz-adv-x="472" d="M457 232q0 -49 -22 -92q-12 -57 -52.5 -92.5t-152.5 -92.5q-2 -1 -28 -4q-28 -33 -80 -33q-25 0 -32 5l-37 31h-3q-18 0 -27.5 16t-12.5 35.5t-4 20.5q5 8 5 12q0 2 -3 7t-3 6q0 6 3 27.5t3 27.5q25 5 25 21q0 2 -2.5 13t-2.5 12q16 14 27 31t34 56q13 20 81.5 87 t78.5 67q2 0 8.5 -1.5t8.5 -1.5q8 0 27 28q2 -1 21 -16l30 -7q12 -6 36 -15q74 0 74 -148zM345 245v11q-5 1 -11 7q3 5 3 11q0 10 -5.5 21t-13.5 11q-14 0 -63 -43q-36 -32 -65 -62.5t-45 -52l-36 -46.5q-3 -3 -12 -30t-9 -32q0 -8 9 -17.5t17 -9.5q55 0 125 47q16 4 38 16 q5 5 31 55q0 1 10 37t15 39q0 34 12 38z" />
<glyph unicode="p" horiz-adv-x="438" d="M426 265q0 -2 -7 -17t-7 -16q-2 -25 -17 -82q-1 -1 -13.5 -26t-27.5 -44.5t-33 -31.5v1q0 1 -5 6q-5 -5 -5 -10l-3 7q-3 7 -5 7q-15 0 -86 -62q-8 -2 -16 -6t-24 -14.5t-26 -16.5q-14 0 -41 -6l-5 -9q-5 -9 -14 -31t-14 -46q-4 -29 -36 -96q2 -6 2 -12q0 -1 -0.5 -3 t-0.5 -3v3q0 9 -7 29q-4 0 -7 -39q-12 -21 -21.5 -55.5t-19 -52.5t-28.5 -18t-19 30q0 17 8 36q4 11 8.5 50t8.5 61q-1 4 -1 19q36 152 112 357q12 19 26 68q20 20 20 55q0 1 -4 1l-18 -13q-30 -22 -56 -34.5t-30 -12.5q-13 0 -13 39q0 17 6 31.5t10.5 20.5t19 19t17.5 16 q85 29 90 29q2 0 4 -1t4 -1t13 7t14 7q2 0 5 -2.5t5 -2.5t7.5 1.5t6.5 1.5q16 0 38 -2.5t59 -14t58 -30.5q24 0 41.5 -24.5t20.5 -52.5q0 -1 3 -6.5t3 -7.5zM330 160q-11 0 -11 -3h1l4 1q4 2 6 2zM347 300q-17 11 -29 17q-2 0 -3.5 -1.5t-3.5 -1.5q-1 0 -13.5 3.5t-28.5 7 t-25 3.5q-14 0 -24 -10q-34 -146 -48 -195q-23 -47 -45 -118l5 -6q2 2 43 22q21 21 21 26q0 2 -2 6l-3 2l58 48q14 5 17 11q-12 6 -12 11q17 8 40 26q-6 3 -6 10q0 2 4.5 5t12 16t12.5 36q30 52 30 82z" />
<glyph unicode="q" horiz-adv-x="409" d="M386 273q0 -3 -6 -23q-6 -23 -10.5 -36.5t-17.5 -32.5q-23 -34 -27 -60.5t-18 -55.5q-8 -38 -38 -118q1 -3 1 -14q-4 -7 -21.5 -67t-22.5 -67q3 -6 3 -11q0 -4 -5 -14l-4 -11l2 -14q-7 -8 -16 -36q-13 -8 -21.5 -35.5t-17.5 -72.5q1 -5 1 -21q-10 -43 -22 -72l7 283 q1 0 6 9q-2 16 -2 35q2 9 4.5 23t6.5 42.5t9 57.5q0 2 6.5 17.5t6.5 17.5q0 7 -6 13q-10 -3 -31 -24q-55 -56 -106 -56h-23t-18.5 3t-16 11.5t-15 25t-16.5 43.5l-2 3l-4 4q0 4 7 8l-5 8q-5 7 -5 9t7 7t7 7q0 1 -3 1q-2 0 -4 -1l-2 -1q1 3 4 9t4 9q4 -7 9 -7q1 1 1 9 q11 -11 16 -11q3 3 16 11v6q-13 7 -28 7v15l3 -2q4 -2 6 -2q15 0 21 9q0 4 -5 4q-1 0 -2 -0.5t-2 -0.5q0 2 1 9t1 9q7 0 10 2t7 9.5t7 12.5q0 2 -1 3l-16 8q12 3 15 14q2 9 8.5 18t16 18.5l23.5 23.5q5 10 21.5 25t17.5 24q8 4 23 19q-1 3 -1 10l36.5 32.5t37 28.5t34.5 15 q1 0 10 7t11 7h42q19 0 43 -15q0 1 -11 -8.5t-19 -9.5q-2 0 -4 1t-3 1q-16 0 -32.5 -8t-32.5 -21.5t-34 -32.5t-35.5 -40.5l-37.5 -45.5q-24 -35 -115 -186q-1 -6 -5.5 -24.5l-7.5 -31.5q2 -2 2 -3q0 -2 -2 -6l-2 -4q2 0 5 7l2 7q2 -1 10 -14q4 0 4 2l-1 2q-1 1 -1 2h7 q36 0 67.5 13t97.5 62q17 9 24 23t16 43t24 55q20 50 39 74.5t28 43.5q-1 2 -1 11q2 9 19 23q11 -9 37 -27q-5 -5 -5 -8q0 -5 4.5 -12t4.5 -9zM-6 135q0 -1 -1.5 -6t-1.5 -7t1 -3q-2 0 -8 1l-6 2zM6 -42v9q-2 2 -5 2q-1 0 -7 -2q4 -9 12 -9z" />
<glyph unicode="r" horiz-adv-x="278" d="M383 383q1 -2 1 -13q-1 -5 -15 -8q-3 -1 -14.5 -4.5t-18.5 -6.5l-21 -12l-9.5 -7t-11.5 -7q-28 -11 -44 -23q-41 -30 -83 -86q-8 -9 -17 -29q-6 -11 -12 -35l-3 -6q-3 -6 -5 -13q-3 -10 -10 -45q-2 -13 -8 -30q-2 -9 -8 -25q-1 -2 -2 -5v-5q0 -2 -0.5 -4t-0.5 -5 q0 -2 1 -4t1 -4l-6 -22q-2 -10 -5 -21q0 -1 -1 -1.5t-2 -1.5q0 -1 -1 -3l-1 -2q-3 1 -5.5 4t-4.5 4q-1 1 -3 4q-2 5 -6 3t-5 -8q0 -4 -1 -7q-1 -2 -1.5 -7t-2.5 -8q0 -2 -3 -1.5t-4 0.5l-6 -2q-2 0 -3 1q-1 2 -2 2t-2.5 0.5t-2.5 1.5v4q-1 1 -2 3q-4 7 -9 14l-8 14 q-1 2 -1 3.5v3.5t-1.5 3.5t-1.5 3.5v1q1 1 1 2t-1 3v2q0 1 -1 1h-1l-2 6q0 2 -1 3t-2 3q0 1 1.5 2t1.5 2q1 2 1 4v9q0 2 0.5 5.5t0.5 4.5q4 15 9 38.5t7 31.5l6.5 25l6.5 25q1 3 1 7q1 2 1 4l4 12q0 1 1 1v-1q1 3 3 7.5t2 5.5q1 1 1 2.5v2.5q2 8 3 21q1 4 1.5 14t0.5 15 l5 30q2 12 3 21q2 13 9 25q6 14 18 26v1l1 1q1 1 1 2l-1 1q1 1 11 13q2 2 4.5 6t5.5 7q3 2 6 3l6 4q2 1 4.5 -0.5t4.5 -1.5q1 0 4.5 1t4.5 0q2 -1 5 -5q1 -1 1.5 -2.5t2.5 -2.5q1 -1 5 -2.5t6 -3.5q1 -1 4.5 -5t5.5 -6q13 -14 16 -15q5 -4 13 -4q2 0 20 9q1 0 16 7.5 l25 12.5q36 17 50 21q19 5 36 5q3 0 11 -2t11 -4q8 -5 11 -9z" />
<glyph unicode="s" horiz-adv-x="338" d="M375 401q0 -43 -39 -81q-2 -2 -17 -12.5t-24 -18t-24 -21.5t-24 -26.5t-16 -29.5t-7 -34q0 -3 15 -81l15 -81q0 -9 -15 -48q-10 -26 -17.5 -37.5t-11 -10t-7.5 0.5q-60 0 -99 11q-5 9 -22 17t-33.5 24t-26.5 46q-4 13 -22 13q-4 0 -49 -35t-63 -38q4 17 18 45 q11 17 62.5 46.5t67.5 35.5l50 38t45 38.5t33 42.5q0 4 2 62q0 11 33 88q19 43 20 72q12 9 54 44l3 -3q4 -2 10.5 -7l15 -11l18.5 -12.5t18.5 -11.5t17 -8.5t13.5 -3.5h6v-13zM191 27v42q0 25 -27 93l-135 -104q14 -10 25 -10q2 0 12 3t12 3t10 -7t11 -7q1 0 4.5 1.5 t5.5 1.5q4 0 34.5 -9.5t36.5 -9.5q2 0 6 2z" />
<glyph unicode="t" horiz-adv-x="348" d="M431 377q-1 -2 -18 -11t-19 -11q1 -4 8 -4h6q3 1 6 1q-2 -4 -15 -11t-26.5 -12.5t-14.5 -6.5q-2 0 -11 -9.5t-29 -14.5q-2 -6 -37.5 -15.5t-68.5 -27.5q-14 -37 -41 -87q0 -11 -16 -36l-7 -20q0 -5 -3 -13q-4 -6 -17.5 -39t-16.5 -35q-8 -18 -8 -28q1 -7 1 -16 q0 -7 -1 -9l-13 -34q-13 -33 -28 -50q-4 28 -4 63q0 2 1.5 12t2.5 18q-3 3 -6 10q0 4 2.5 17t2.5 17q-1 2 -3 8q0 8 2 26t11.5 56t24.5 71q3 22 25 66q0 5 -17.5 25.5l-54.5 62.5q4 2 7.5 4.5t7 3.5t10.5 1q31 0 80 -4q4 4 23 43q0 8 3 16l12 32.5t19 57.5q14 14 30 93h8h1 l16 11q15 10 20 6q2 0 14.5 -7t14.5 -7q3 0 21 -30l-7 -10q-1 -8 -8 -25q-16 -30 -36 -84t-29 -74l1 1q1 0 4 -9q21 -3 40 -3q44 0 123 21h7z" />
<glyph unicode="u" horiz-adv-x="385" d="M392 86q0 1 -1 -1.5l-3 -7.5t-5.5 -11t-8 -11.5t-10.5 -9t-13 -3.5q-17 0 -53 10q-5 1 -19 21t-17 20q-4 0 -9 -6q-48 -90 -77 -116q-2 -1 -35.5 -13.5t-34.5 -12.5q-14 0 -48 12q-5 10 -35.5 42.5t-30.5 41.5q0 17 -0.5 34.5t3.5 45t14 52.5q12 9 19 22t18 49q4 2 6.5 9 t11.5 25t23 39q0 9 18 48.5t27 39.5t17.5 -15.5t8.5 -28.5q0 -3 -4.5 -16t-4.5 -16q0 -1 -0.5 -11t-1.5 -20q6 -9 7 -24q-11 -23 -30 -74l-8 -4q2 -6 2 -9q0 -1 -22 -53t-22 -84q0 -2 12 -8t12 -7h6q4 5 30 19q14 8 23.5 17t15 17.5t10.5 19t9 21.5l71 167q2 0 8.5 1.5 t8.5 1.5q1 0 20.5 -14t24.5 -14q6 0 8 2q3 -3 8 -18.5t5 -20.5q0 -10 -9 -59l-10 -57q0 -16 16 -16q0 1 44 16q5 -20 5 -32z" />
<glyph unicode="v" horiz-adv-x="446" d="M599 444l-13 -8l2 -5l-2 -5l-18 -11l2 -1l-15 -7l-1 -1l4 -1l2 1l5 -3h-1l2 -1l-7 -3l-7 -4l2 -5l-2 -5l-15 -9l-6 -12l-83 -66l-20 -18l-16 -12v-6l-21 -16v-3l-118 -116l-29 -21l-25 -18q-48 -40 -76 -68q-6 -7 -11 -16l-4 -10l-34 -41q-3 -3 -1 -8l2 -5l-2 -8 q-2 -9 -6 -10l-18 1l-9 7q-8 6 -9 11q-9 31 -11 29l-2 40q-3 40 -3 78l-4 26l4 89l16 77l9 54l17 61l3 3q10 37 14 39l11 -8l9 3l6 -2l6 2l17 -3l8 -6l1 -5l6 -8l3 -64l-25 -159q1 0 94.5 64t156.5 94q30 13 87 48q13 9 54 28.5t57 22.5h2l7 3z" />
<glyph unicode="w" horiz-adv-x="532" d="M615 586h1l-7 -20v-6l-3 -3l1 -12l-7 -19l-18 -26l2 -9l-22 -49l-19 -47l-3 -19l-9 -18l3 -6l-3 -13l-17 -42l-9 -35l-12 -22l-4 -15l1 -10l-9 -21l2 -11l-7 -18l-5 -4l-9 -31l-29 -71l-23 -45l-10 -8l-27 -22l-11 -5h-30l-30 15l-22 28l-15 41l-19 55v157h-4l-10 -19 l-21 -72v-17l-13 -47l1 -16l-15 -60l-24 -70l-19 -12h-15l-23 16l-15 15l-15 29l-13 42v130v104l9 97l16 23l9 6h18l17 -19l12 -22v-79l-2 -19l3 -29v-35l-3 -13v-41l43 118l25 42l17 18l41 12h23l15 -12l12 -13l10 -20l9 -34l3 -18v-74v-6v-60l5 -32l4 -8h4l73 151l67 151 l24 44l22 36l14 32l16 25l14 17v6l20 24z" />
<glyph unicode="x" horiz-adv-x="348" d="M388 417h2l7 -17l2 -29l-1 -5l-22 -31h-3l-33 -39l-37 -38l-56 -65l-9 -8l-4 -9l-4 -2l-5 -13l31 -84l38 -83l12 -18l3 -10l3 -1l4 -18l-1 -3l11 -18l6 -11h-4l-4 6h-4l7 -11l-18 6l-10 2l-3 -3l-9 5l-6 12l-8 -3l-57 69l-61 94l-20 -21l-2 -5l-49 -61l-11 -16l-29 -33 l-4 -1l-13 -21h-5l-6 -10l-4 2l-12 -10l-13 -3l-3 5l-3 16l5 18l21 40l15 19l45 65l60 79l-23 66l-21 87v37v34l6 11l14 14l15 5h11l6 5l12 -14l19 -39l14 -34l21 -76l57 68l54 55l39 35l15 7h13l4 -2z" />
<glyph unicode="y" horiz-adv-x="472" d="M440 318q0 -2 -4 -10t-4 -12q0 -1 -1 -10.5t-2 -22t-5 -37t-10 -52.5q-25 -100 -58 -169q-4 -22 -23 -64q0 -1 0.5 -3t0.5 -4q0 -13 -6.5 -28t-21.5 -45q-3 -14 -18 -37q1 -2 1 -11l-26 -62l-2 -2q-1 0 -3 5t-3 5q-4 0 -12 -8l-8 -8q3 -7 3 -11q0 -2 -5 -5.5t-6 -7.5 q3 -5 3 -9q0 -5 -16.5 -10t-16.5 -11q0 -4 11 -9l-2 -4q-1 -3 -4 -10.5t-10.5 -18.5t-17.5 -21q3 -4 6 -18q-8 -11 -13 -41q-2 -1 -37 -1q-11 0 -24.5 12.5t-13.5 35.5q0 4 3 8l3 7q3 24 12 73q3 9 20.5 49.5t21.5 40.5q2 0 6 -2t6 -2q5 0 30 72q8 12 23.5 54.5t16.5 43.5 l22 72q11 4 25 12v6q-3 1 -14 10q13 13 13 39q0 5 -3 10h-7q-32 -32 -57 -53.5t-45 -32l-28 -14.5t-25 -7l-17 -3q-94 82 -94 132q0 1 3 4t3 5q4 17 4 38q0 11 -1 17q5 2 18 14q-1 3 -1 11q0 11 48 78l5 7q5 7 12.5 15.5t17.5 18t23 15.5t26 6t24.5 -14.5t11.5 -28.5 q0 -8 -9.5 -21t-21.5 -26t-14 -16q0 -13 -21.5 -61.5t-27.5 -66.5q0 -2 -5.5 -13t-5.5 -17q0 -17 10 -17q33 0 120 75l2 5q3 8 28 28l10 10q4 4 8 4q1 0 1 -1h2q1 7 12 22.5t22.5 30t11.5 15.5q11 15 15.5 38t14 32.5t38.5 9.5l12 -2q3 -1 40 -18v-8z" />
<glyph unicode="z" horiz-adv-x="504" d="M256 128l-4 -42q2 -6 10 -7.5t9 -5.5l-8 -19q1 -1 9 0.5t8 0.5t6.5 -6t6.5 -6q0 -5 22 -17.5t22 -19.5q0 -2 -2 -8l74 30l11 3l8 6l53 22l32 18l35 14l1 -6l-19 -18l-3 -1l-2 -4l-24 -18l-1 -3l-40 -27l-34 -20l-44 -22l-8 -2l-58 -28q-6 -13 -16 -39t-17 -42.5 t-11 -20.5q4 -5 4 -11q0 -1 -12 -25l3 -14q-58 -50 -66 -68q-12 -4 -16.5 -11t-7 -17.5t-6.5 -16.5q-14 -20 -40 -53t-40.5 -53.5t-14.5 -28.5l4 5q-35 -44 -78.5 -71t-82.5 -27q-20 0 -52 16q-2 14 -2 24q0 28 8 55v4q0 12 8 36q127 190 235 283q10 18 45.5 48t39.5 48 q2 0 3 17.5t2 22.5q1 3 -18.5 18t-19.5 17l2 12l10 -2q5 0 5 3q0 11 -37.5 47t-42.5 36l36 46l96 29q8 1 39 20.5t36 24.5q3 4 20 21q1 1 2 4.5t3 5.5q14 10 16.5 13.5t2.5 33.5q0 2 -2 6l-1 5h-42q-25 0 -93 -27l-40 -9q-1 0 -30 1q-12 0 -88 33q-43 19 -72 20 q-9 12 -44 54q4 0 27 23t23 38v6h13q43 0 81 -39q6 -10 16.5 -21.5t22 -21.5t31 -17t44.5 -7q3 0 81 15l81 15q9 0 48 -15q48 -18 48 -30q0 -71 -12 -113q-6 -4 -31 -23.5t-54.5 -38t-59.5 -28.5zM150 -246l59 141q-12 -3 -70.5 -59t-63.5 -68q-21 -15 -38 -38.5t-43 -79.5 q-26 -33 -43.5 -61.5t-17.5 -34.5q3 -13 11 -13q3 0 9 1.5t9 1.5q2 -1 37.5 33t43.5 44q5 7 33.5 40l50.5 60.5t23 32.5z" />
<glyph unicode="{" horiz-adv-x="329" d="M425 753l3 -10l-2 1q-3 1 -4 1q-3 -17 -18 -17q-4 0 -13 1.5t-14 1.5q-15 0 -27 -6t-25 -18t-17 -15l-9 2q-3 -2 -10 -3.5t-11 -4.5t-4 -11q0 -34 20 -56q2 -3 16.5 -8t14.5 -15q0 -9 -5 -17t-10 -13t-5 -6q0 -2 2 -7t2 -6l-34 -33l-38 -45.5t-43 -55.5l-33 -36 q-3 -5 -5 -18.5t-5 -18.5q0 -1 2.5 -6t2.5 -7l-2 -6q0 -2 -12.5 -6.5t-14.5 -8.5l13 -34q-1 -3 -1 -8q2 -25 28 -56l17 -16q18 -15 18 -28q0 -3 -1.5 -10.5t-1.5 -10.5v-4l-11 -14q-2 -7 -4.5 -31.5t-7.5 -35.5q0 -1 0.5 -2.5t0.5 -2.5q0 -3 -9 -3.5t-9 -2.5l-1 -13 q-1 -2 -1 -5q0 -2 0.5 -6t0.5 -5q0 -20 -2 -44l-3 -29l10 -34v-7q0 -6 -1.5 -17t-1.5 -16q0 -8 2 -11l11 -6q1 -2 4.5 -5.5t3.5 -4.5q0 -2 -1.5 -6t-1.5 -5v-1l5 -5l-2 -19l18 -20q2 -5 12.5 -17t10.5 -20q0 -12 -22.5 -21.5t-22.5 -11.5l-8 4l-8 -13q-26 6 -44.5 30 t-24.5 55l2 18q0 4 5.5 10.5t5.5 9.5t-3 8.5t-3 7.5q-23 119 -25 139l4 24v43l-15 8v2q0 10 10 28t11 22q0 3 -7 12.5t-7 11.5q-2 11 -4 14l-5 18l1 11l-5 1q-5 0 -6 1q-4 10 -8 30t-7 29l6 14l-10 10q-1 7 -7.5 22t-7.5 23l1 1q0 3 1.5 6t1.5 5v5q1 5 5 12t5 9q0 1 -2 5.5 t-2 6.5q0 3 2 3t5 -0.5t4 -0.5l20 33q19 34 24 39l15 21l17 18q7 5 14.5 18.5t7.5 25.5q0 5 -3 17.5t-3 18.5q0 4 7 10t7 11q0 2 -2 8t-2 9l1 13q1 3 8 7t8 7q1 2 -4 7t-5 6v1l18 7v12q0 1 -1.5 2.5t-4.5 2.5q-5 4 -5 5q26 58 102 101q4 8 21.5 19.5t32.5 13.5l12 -5h9 q0 -1 1 -1v1h-1q-1 0 -2 1q-2 2 -3 2q6 0 9.5 -1.5t7.5 -4t7 -3.5l15 4q8 0 10.5 -5t3.5 -6l11 2l5 -6q21 -9 25 -21h4z" />
<glyph unicode="|" horiz-adv-x="622" d="M442 779q4 0 4 -12q-1 0 -3 1h-2q-5 -9 -6.5 -19t-2.5 -26t-2 -23q0 -4 0.5 -12t0.5 -12q-1 -6 -4.5 -19t-4.5 -20q0 -3 0.5 -8t0.5 -7q0 -9 -2.5 -22t-6.5 -28t-5 -22q-18 -156 -37 -236q0 -14 -7 -49t-7 -51v-15q0 -11 -7 -39t-7 -39v-15q0 -14 -8.5 -49t-8.5 -44 q-3 -11 -4.5 -33.5t-5.5 -34.5q0 -21 -11.5 -67.5t-11.5 -59.5q0 -3 3 -21q0 -28 -10.5 -39t-42.5 -11v5q-15 1 -26 12.5t-12 11.5q0 14 4.5 40t6.5 43q5 89 16 163q0 3 8.5 30.5t8.5 48.5q0 12 2.5 21.5t7 20t5.5 14.5q0 32 11 65q1 4 6.5 31.5t11.5 61.5t9 57q7 27 16 93 t12 81q0 4 -1 12.5t-1 12.5q0 3 3.5 17.5t3.5 22.5v20q0 11 3.5 32t3.5 31v15q0 8 6 26q4 20 5 36.5t13 27t38 10.5q0 -1 -0.5 -3.5t-0.5 -3.5q33 -5 38 -23z" />
<glyph unicode="}" horiz-adv-x="346" d="M-89 -237l-3 10l2 -1q3 -1 4 -1q3 17 18 17q4 0 13 -1.5t14 -1.5q15 0 27 6t25 18t17 15l9 -2q3 2 10 3.5t11 4.5t4 11q0 34 -20 56q-2 3 -16.5 8t-14.5 15q0 9 5 17t10 13t5 6q0 2 -2 7t-2 6l34 33l38 45.5t43 55.5l33 36q3 5 5 18.5t5 18.5q0 1 -2.5 6t-2.5 7l2 6 q0 2 12.5 6.5t14.5 8.5l-13 34q1 3 1 8q-2 25 -28 56l-17 16q-18 15 -18 28q0 3 1.5 10.5t1.5 10.5v4l11 14q2 7 4.5 31.5t7.5 35.5q0 1 -0.5 2.5t-0.5 2.5q0 3 9 3.5t9 2.5l1 13q1 2 1 5q0 2 -0.5 6t-0.5 5q0 20 2 44l3 29l-10 34v7q0 6 1.5 17t1.5 16q0 8 -2 11l-11 6 q-1 2 -4.5 5.5t-3.5 4.5q0 2 1.5 6t1.5 5v1l-5 5l2 19l-18 20q-2 5 -12.5 17t-10.5 20q0 12 22.5 21.5t22.5 11.5l8 -4l8 13q26 -6 44.5 -30t24.5 -55l-2 -18q0 -4 -5.5 -10.5t-5.5 -9.5t3 -8.5t3 -7.5q23 -119 25 -139l-4 -24v-43l15 -8v-2q0 -10 -10 -28t-11 -22 q0 -3 7 -12.5t7 -11.5q2 -11 4 -14l5 -18l-1 -11l5 -1q5 0 6 -1q4 -10 8 -30t7 -29l-6 -14l10 -10q1 -7 7.5 -22t7.5 -23l-1 -1q0 -3 -1.5 -6t-1.5 -5v-5q-1 -5 -5 -12t-5 -9q0 -1 2 -5.5t2 -6.5q0 -3 -2 -3t-5 0.5t-4 0.5l-20 -33q-19 -34 -24 -39l-15 -21l-17 -18 q-7 -5 -14.5 -18.5t-7.5 -25.5q0 -5 3 -17.5t3 -18.5q0 -4 -7 -10t-7 -11q0 -2 2 -8t2 -9l-1 -13q-1 -3 -8 -7t-8 -7q-1 -2 4 -7t5 -6v-1l-18 -7v-12q0 -1 1.5 -2.5t4.5 -2.5q5 -4 5 -5q-26 -58 -102 -101q-4 -8 -21.5 -19.5t-32.5 -13.5l-12 5h-9q0 1 -1 1v-1h1q1 0 2 -1 q2 -2 3 -2q-6 0 -9.5 1.5t-7.5 4t-7 3.5l-15 -4q-8 0 -10.5 5t-3.5 6l-11 -2l-5 6q-21 9 -25 21h-4z" />
<glyph unicode="~" horiz-adv-x="589" d="M394 620h31l19 -3l26 -16l23 -26l10 -14l13 -26l2 -25l-4 -13l-11 -19l-25 -29h-2l-7 -7l-33 -40l-21 -17l2 -8l-34 -23v-4l-4 -7l-13 -4v-8l-29 -25l14 -28l17 -27l17 -26l9 -10l24 -39l49 12l57 18l72 7l-2 -2l-21 -15l-4 -6l-17 -9l-3 -4l-16 -10l2 -7l-25 -13l2 -6 l-5 -4l-4 -13h4l-26 -21l39 -50l30 -38l-2 -4h-10l-3 6l-6 -2l-6 -12l-15 -11h-6l-11 -10h-10l-13 4l-41 46l-14 20l-11 -12l-13 -1l-15 -10l-6 -9l-28 -9l-24 -11l-16 -15l-24 -9l-30 -6l-42 5h-76l-25 10l-4 4l-5 -2l-16 9l-21 15l-20 25l-10 19l-4 21l2 31l14 34l32 46 l49 57l126 123v97l7 37l8 26l23 34l27 25l26 17l31 14zM391 518l-13 -2l-21 -5l-29 -16l-23 -22l-3 -28v-23h3l91 89v7h-5zM267 221l-2 -2l-19 -6l-8 -9v-6h-7v-6l-6 -4v-3l-32 -27l-12 -17l-13 -13l-6 -12l-1 -13l33 2l44 10l38 13l22 2l26 17l-4 9l-9 -2v13l-18 31l-9 8v9 l-6 8z" />
<glyph unicode="&#xa1;" horiz-adv-x="328" d="M200 570q7 19 11 23v5l3 3q0 3 -1 5v4q1 0 4 2l3 2v2l8 11l1 1q2 1 5 4q6 -1 18 1l4 2v5q3 1 7 3q1 6 11 6q3 -3 6 -4l1 1q0 1 1 2h4l7 -7q1 0 2 1h2q2 0 3 -1l11 -21q1 1 3 1q7 -7 7 -18q-1 -2 -1.5 -7t-0.5 -8v-10q-1 -8 -6 -24q-13 -13 -22 -25q-11 -3 -14 -4 q-1 1 -20 1q-3 3 -22 11q-5 1 -18 14q0 3 -1 4q-2 1 -5 4l-5 5q-3 2 -6 6zM242 374q0 -12 -5 -17q-1 -2 -5.5 -18t-7.5 -28l-3 -26q0 -6 -5 -31l-4 -4v-8q-2 -2 -3 -10l-40 -162q1 -1 1 -5q-7 -36 -19 -86q-2 -7 -4 -16.5l-3 -14t-2.5 -10t-2 -7.5t-1.5 -3v-1l-6 -12 q0 -1 -2 -2l-2 -1q-5 -5 -22 -5q-4 0 -18 8q-13 7 -13 10q-4 10 -5 16v21q9 28 18 80q6 33 16 80q11 49 46 153l26 75q1 3 6.5 16l9.5 23q9 20 19 24q2 1 8 3q7 -3 19 -19q1 -5 1 -18q1 -1 3 -5z" />
<glyph unicode="&#xa2;" horiz-adv-x="455" d="M276 201l-33 -75l-21 -50q38 5 80 21t69 36q6 5 13 10t17 21t16 38l16 -46l-16 -30l-12 -5q-12 -8 -55 -43q-24 -19 -80.5 -44.5t-79.5 -27.5l-19 -42l-44 -73l-14 -37l-15 -20l-3 1l-14 -14l-6 -7l-11 5l-7 -3l-4 23l-1 9l12 37l39 96l24 62l-10 13q-24 26 -35.5 39.5 t-29.5 54t-18 83.5q0 35 7 56l5 5q6 5 12 16t8 24q27 23 28 72q4 4 7.5 5t6 3.5t14 21.5t31.5 56q26 1 32.5 3.5t10.5 10.5q3 -1 17 -2.5t32 -5t33 -11.5l33 -15l5 13l69 150l18 36l8 11l4 -1l-9 -25l2 -5l-3 -8l-7 -30l3 -6l-5 -20l-1 -12l-2 -15l-17 -51l-10 -30v-6 l-4 -21l1 -4l-2 -8q14 -11 27 -22.5t29.5 -29t18.5 -19.5v-17q-2 0 -10.5 -2t-11.5 -2q-6 0 -75 30l-30 -91zM160 127l73 171l37 83l10 22q-25 10 -27 10q-40 0 -85 -114q-38 -99 -38 -129q0 -62 16 -80z" />
<glyph unicode="&#xa3;" horiz-adv-x="630" d="M575 168l26 17q36 -39 36 -76q0 -50 -53 -81.5t-107 -31.5q-49 0 -176 20q-54 8 -91 8q-52 0 -85 -12l-86 -20q6 3 11 6t9.5 6t7 7.5t2.5 10.5q-17 7 -30 7q-19 0 -90 -11q3 1 28.5 19t55.5 35t48 18l6 35q36 15 54 69q27 78 29 72q1 -3 -2 -9l-2 6v52q0 11 6 22 q-14 10 -34 10q-8 0 -36.5 14.5t-37.5 14.5q-45 0 -46 48q15 14 89 6.5t87 0.5q3 14 10 57.5t8 45.5q11 69 47 107t91 38q97 0 123 -68l-28 -89q-35 57 -128 70q0 -1 -5 -7.5t-9 -21.5t-4 -39q0 -6 -2.5 -32.5t-3 -41.5t3.5 -27l132 -25h1q13 -2 8 -4l-10 -1l2 -1 q13 -7 5 -15q8 -8 -6.5 -13t-25 -5.5t5.5 -4.5l-38 -16q3 -13 32 -18l-126 11q6 -24 4 -36q-4 -32 -22.5 -66.5t-68.5 -110.5h8q10 0 31 -4.5l65 -14t84 -16.5q33 -6 60 -6q102 0 137 91z" />
<glyph unicode="&#xa4;" horiz-adv-x="299" />
<glyph unicode="&#xa5;" horiz-adv-x="585" d="M613 625l-4 -14h3l-8 -18l-9 -12v-6l-6 -11l-11 -8l-1 -10l5 -5l9 2l4 -5l-50 -56l-14 -20l-13 -27l-28 -39l-22 -26l-4 -8l-27 -33l-11 -12l-5 -8l-15 -14l3 -5h84l33 -2l37 -8l3 -3l20 -6l15 -5l-3 -5l4 -7l-5 -4l-7 -2h-12l-3 -2l1 -8l-21 2l-5 -2l-1 -8l5 -3l-1 -3 l-8 -3v-4l-28 -3l-25 -5l-25 -1l-35 -2l-5 -3l-32 -3l-51 -8l-35 -8l-9 -15l-9 -23l-4 -4l1 -5l-5 -10l-6 -14l16 3l43 5l53 8l78 9h19l6 -3l1 -5l-12 -5l-2 -6l-4 -1l-14 -10l-1 -7l-9 -6l-6 -7l-6 -5l-25 -11l-14 -7l-3 -4l-9 -7l-1 -5l-28 -11l-50 -15l-43 -11l-31 -10 l-2 -5l-5 -24l-12 -23l-12 -24l-3 -2l-5 -16l-4 -3l-5 -13l-6 -19l-4 -25l-3 -12l-2 -17l-4 -14l-5 -5l-2 -6l-7 -5l-6 8l-9 19v11l-5 13l1 45l9 78l4 24l-4 -1l-40 10l-19 -6l-11 5l-1 5l-9 8l-4 3l-1 17l-3 7l8 19l3 6l18 8l48 12l38 10l22 74l-81 -18l-35 -4l-23 1l-11 2 l-17 6l-12 10l-8 11v12l6 12l20 13l65 26l78 26l-9 34l-7 40v47l1 25l9 57l8 42l21 40l18 13l10 5l6 1l12 -1l3 -5h3l14 -8l9 -10l11 -42l4 -30l-5 -36l1 -16l-10 -84l8 -5l14 12l48 45l258 250l9 -5z" />
<glyph unicode="&#xa7;" horiz-adv-x="454" d="M429 575q19 -18 14 -36q-1 -4 -8 -5q-4 0 -6 -1q-1 0 -7 -4.5t-10 -4.5q-3 0 -9 -2.5t-9 -2.5q-13 0 -24 4q-5 2 -10 9t-7 8q-14 9 -16 9q-8 0 -14.5 -4t-13.5 -12t-10 -10q-26 -20 -29 -32q-1 -7 -0.5 -10.5t2 -10t1.5 -8.5q0 -8 9 -17q9 -8 16.5 -19.5t10.5 -14.5 q5 -3 15 -13.5l16 -16.5q2 -2 8.5 -6t10.5 -7q17 -14 28 -20q5 -2 16 -3t15 -2q8 -4 15 -16q3 -5 1 -27q0 -14 -7 -38q-7 -25 -12 -33q-16 -27 -20 -30q-2 -2 -19 -7l-16 -4q-15 -3 -24 -8q-5 -3 -7 -14t-2 -12q-3 -6 -5 -16l-8 -4h7q0 -2 -3.5 -8t-4.5 -10q0 -3 12 -29 q12 -25 14 -33q3 -15 0 -29q-2 -8 -28 -44q-13 -21 -50 -49q-36 -27 -48 -33q-35 -17 -48 -20q-23 -7 -42 -8q-7 0 -26.5 5.5t-31.5 5.5q-2 0 -6 -4l-4 -3q-8 -4 -9 -4q-14 2 -34 3t-27 2t-16.5 4t-12.5 3q-39 9 -54 23q-11 11 -7 33q7 22 12 26q10 7 35 7q3 0 11.5 -5 t12.5 -6t16.5 -5.5t20.5 -6.5q28 -8 75 -13q46 -3 107 -3q23 0 40 13q12 9 19 36q5 14 1 35q-2 22 -11 32l-6 7q-5 6 -10 11q-8 7 -35 25q-21 15 -27 18q-2 1 -13.5 3.5t-19.5 7.5q-15 11 -21 33q-2 7 5 21t8 20q2 7 -1 22t0 21q3 7 16.5 15.5t15.5 10.5t18 16q2 2 11 13 t17 16q12 9 20 17q5 4 7 15q2 10 1 15q0 1 3.5 11.5t-0.5 10.5q-5 5 -15 9t-11 5q-3 2 -7 4q-3 2 -4 3q-1 2 -4.5 7l-6 8.5t-2.5 7.5q0 5 5 14.5t6 13.5q3 11 5.5 21.5t8.5 22t15 18.5q11 10 42.5 20.5t39.5 14.5q5 2 12 8.5t11 8.5t10 10.5t11 11.5q5 2 15.5 4t14.5 3t21 1 q22 0 39 -19zM282 306q-23 0 -50 -22q-29 -27 -34 -47q-3 -13 -1 -19l3 -8q2 -9 7 -12q8 -4 22 -4q8 -1 27 -1q38 0 69 9q33 10 38 26q3 14 -5 30q-3 5 -13 11.5t-13 9.5q-5 5 -15 10.5t-12 7.5q-12 9 -23 9z" />
<glyph unicode="&#xa8;" horiz-adv-x="398" d="M110 839h2l8 -3l9 -4l8 1l-1 -7l10 -4l14 -13l6 -7l14 -33l1 -7v-12l-7 -12l-7 -8l-1 -2l-15 -2l-17 -2l-18 7l-8 4l-2 2l-24 17l-11 10l-2 5v13l-2 11l2 13l8 16l18 14zM265 837l22 -7l9 2l12 -15l14 -12l9 -24v-27l-13 -14l-5 -3l-10 -3l-26 4l-20 10l-21 19l-1 15 l-4 6l11 34l10 7l10 3z" />
<glyph unicode="&#xa9;" horiz-adv-x="622" d="M569 476q0 -4 -1 -8l-3 -14l1 -3q1 0 2 -1q0 -5 -14 -35l-7 -16t-5 -12q-10 -16 -22 -30q-6 -10 -7 -11q-5 -2 -13 -10l1 -3q-1 -1 -2 -3l-1 -1q-2 -1 -10.5 -6t-14.5 -8q-1 -2 -8 -7t-9 -7q0 -1 -2 -2l-2 -1q-4 -3 -21 -10q-6 -2 -14 -6q-2 -1 -5 -3q-4 -1 -6 -3l-28 -8 q-1 -1 -5 -3q-14 -4 -38 -9q-2 0 -9 -1.5l-12 -2.5l-10 -1q-6 0 -15 -3q-35 0 -70 6q-42 8 -88 30q-23 13 -41 28l-20 21q0 1 -15 23q-1 5 -6.5 20.5l-8.5 24.5q2 -3 2.5 6.5t-0.5 30.5q3 9 3 15l9 30q6 11 12 27q4 4 11 16.5t13 20.5q2 2 34 45l43 45q2 2 6.5 4.5t6.5 4.5 l9 9q6 3 11 7q24 18 54 20l6 4l5 2q1 0 8 2l7 3q3 1 12 1q4 3 37 12l2 1l11 1q1 0 3 0.5t3 0.5q8 0 15 -2l13 1q1 -2 17 -8q6 -4 15 -9q4 -2 9 -2q-3 -1 0 -4q3 -4 10 -10q3 -6 3 -7q12 -7 25 -12q7 -7 13 -11q1 -1 5 -3l16 -11l16 -16l6 -6l9 -12l1 -3l2 -2l9 -13 q1 -1 3 -3.5t4 -4.5l4 -8q2 -3 2 -12q1 -1 3 -1q4 -8 5 -9q0 -5 1.5 -12l4 -18.5t3.5 -20.5l2 -11l1 -2zM473 485q-2 36 -12 53l-14 27q-6 6 -9 13q-3 3 -11.5 8.5t-12.5 9.5l-26 19l-18.5 7.5t-21.5 8.5q-12 -7 -25 -7l-32 -1q-6 -1 -21 -11.5t-31 -23.5q-12 -5 -46 -47 q-5 -5 -9 -18q-8 -8 -9 -10q-1 -3 -15 -26q-15 -21 -27 -56q-1 -19 0 -28q-2 -19 4 -32q2 -2 3.5 -6t2.5 -6l17 -19q5 -4 37 -19q22 -8 77 -7l21 3q17 1 25 3q6 1 37 11q10 6 17 9q20 7 35 21l26 30l5 9q6 9 12 19q2 3 7 12t8 15v5q6 16 6 34zM399 398l-7 -3q-6 -5 -33 -23 q-15 -10 -49.5 -24t-45.5 -14q-12 0 -19 4t-19 23q-40 46 -36 93q4 23 8 30l6 7q7 7 10 16q16 14 19 39q1 1 4 1.5t9.5 9.5l24.5 34q20 1 26 8q34 -17 59 -43l-2 -9q-1 0 -5.5 -1t-6.5 -1t-9.5 2t-9.5 2q-23 0 -54 -60q-19 -36 -19 -66q-3 -29 3 -36.5t32 -7.5q45 0 87 27 l8 4q7 3 13 9.5t10 18.5l7 -25z" />
<glyph unicode="&#xaa;" horiz-adv-x="343" />
<glyph unicode="&#xab;" horiz-adv-x="480" d="M273 374h1l14 -5l10 -5l5 -17l-2 -16l-3 -6l-33 -30l-54 -42l-59 -53l-10 -16v-7l5 -9l65 -62l10 -11l6 -16l2 -17l-2 -5l-8 -8l-12 -2l-7 2l-11 -8h-13l-19 8l-57 41l-14 16l-14 17l-13 31v14l3 20l10 19l20 32l72 65l47 37l40 25l6 3zM403 368l17 -7l5 -1l8 -13l6 -22 l-2 -11l-11 -21l-14 -14l-6 -11l-39 -31l-49 -45l16 -19l8 -11l29 -34l6 -11l5 -13l5 -15v-8l-11 -2l-24 -16l-16 -3l-22 14l-5 2l-5 -3l-24 12l-41 45l-13 28l-3 21l8 32l11 22l42 44l60 53l46 34z" />
<glyph unicode="&#xac;" horiz-adv-x="701" />
<glyph unicode="&#xad;" horiz-adv-x="415" d="M237 229l35 1h78l18 -2l7 -4v-5l-14 -4l-1 -5l-5 -1l-14 -8l-2 -7l-11 -5l-13 -11l-26 -8l-15 -5l-3 -4l-15 5l-2 -4l-25 -13l-36 -9l-23 -5l-28 1l-25 -2l-34 4l-19 -4l-11 7v5l-8 9l-4 3l1 17l-2 7l10 18l4 6l19 6l31 3l62 8l36 4z" />
<glyph unicode="&#xae;" horiz-adv-x="601" d="M562 477l4 -1q0 -4 -1 -8l-3 -14l1 -3q1 0 2 -1q0 -5 -14 -35l-7 -16t-5 -12q-10 -16 -22 -30q-7 -10 -7 -11q-5 -2 -13 -10l1 -3q-1 -1 -2 -3l-1 -1q-2 -1 -10.5 -6t-14.5 -8q-1 -2 -8 -7t-9 -7l-2 -2t-2 -1q-4 -3 -21 -10q-6 -2 -14 -6q-2 -1 -5 -3t-6 -3l-28 -8 q-1 -1 -5 -3q-14 -4 -38 -9q-2 0 -9 -1.5l-12 -2.5l-10 -1q-6 0 -15 -3q-35 0 -70 6q-42 8 -88 30q-23 13 -41 28l-20 21q0 1 -15 23q-1 5 -6.5 20.5l-8.5 24.5q2 -3 2.5 6.5t-0.5 30.5q3 9 3 15l9 30q6 11 12 27q4 4 11 16.5t13 20.5q2 2 34 45l43 45q2 2 6.5 4.5t6.5 4.5 l9 9q6 3 11 7q24 18 54 20l6 4l5 2l7 2q7 3 8 3q3 1 12 1q4 3 37 12l2 1l11 1q1 0 3 0.5t3 0.5q8 0 15 -2l13 1q1 -2 17 -8q6 -4 15 -9q4 -2 9 -2q-3 -1 0 -4q3 -4 10 -10q3 -6 3 -7q12 -7 25 -12q7 -7 13 -11q1 -1 5 -3l16 -11l16 -16l6 -6l9 -12l1 -3l2 -2l9 -13 q1 -1 3 -3.5t4 -4.5l4 -8q2 -3 2 -12q1 -1 3 -1q4 -8 5 -9q0 -5 1.5 -12l4 -18.5t3.5 -20.5l2 -11zM470 485q-2 36 -12 53l-14 27q-6 6 -9 13q-3 3 -11.5 8.5t-12.5 9.5l-26 19l-18.5 7.5t-21.5 8.5q-12 -7 -25 -7l-32 -1q-6 -1 -21 -11.5t-31 -23.5q-12 -5 -46 -47 q-5 -5 -9 -18q-8 -8 -9 -10q-1 -3 -15 -26q-15 -21 -27 -56q-1 -19 0 -28q-2 -19 4 -32q2 -2 3.5 -6t2.5 -6l17 -19q5 -4 37 -19q22 -8 77 -7l21 3q17 1 25 3q6 1 37 11q10 6 17 9q20 7 35 21l26 30l6 9l11 19q2 3 7 12t8 15v5q6 16 6 34zM405 380l-1 -1q-1 -1 -5 -2t-6 -3 q-3 0 -4 1v-2h-4h-1h-2q-2 2 -13 6.5t-17 7.5l-8 3q-8 2 -38 19l-3 1q-19 8 -31 15l-9 3l-4 -1q-24 -13 -30 -14l-1 -6v-3q-2 -7 -12 -25v-1l-7 -20q-7 -13 -12 -18l-4 -3q0 -1 -4 -1q-5 0 -12 12v1v7q-1 0 -2 2l2 18q1 1 1 4q0 1 1 2.5t0 2.5q1 3 2.5 11.5t3.5 13.5v1 q0 7 5 17q3 8 9 31q5 12 12 31.5l13 35.5v3q2 2 3 4v3q1 1 3 6.5t4 9.5q0 2 5 6.5t19 8.5q2 -1 5 -1h5h2q2 1 4 1q44 25 56 25l26 4h1q7 0 19 -4q28 -14 24 -43q0 -10 -4 -13v-1q-7 -14 -11 -17t-46 -30l-5 -2q-4 -2 -9.5 -5.5t-10.5 -7t-5 -5.5v-1l-4 -3q-2 -1 -5 -8v-2 q-1 0 -1 -4v-1q0 -1 8 -5.5l35 -19.5t58 -34q3 -2 3.5 -6.5t1.5 -4.5v1zM366 557l-4 1q-4 2 -6 2l-11 -2q-17 -5 -21 -5l-10 -5q-11 -5 -28 -16q-2 -1 -20 -33l-7 -20l33 11q1 1 6 3t17 10.5t32 26.5q8 6 13 16z" />
<glyph unicode="&#xaf;" horiz-adv-x="238" d="M295 548l15 -15l8 -16l-2 -16l-8 -26l-9 -16l-8 -16l-9 -16l-19 -28l-12 -14l-5 -9l-8 -12l-63 -116l-3 -13l-10 -20l-9 -17l-5 -18l-7 -29l-2 -6v-12l-7 -24v-21l5 -1l-2 -5l2 -21l5 -25l9 -15l-3 -8l11 -14l21 -18l11 -16l-1 -13l-15 -3l-29 8l-18 11l-20 15l-9 9 l-30 37l3 4l-5 6l-11 29l-9 47v27l4 34l5 5l-5 5l18 67l32 66l7 18l26 56l14 20l10 22l22 37l27 43l23 29l28 12z" />
<glyph unicode="&#x2c9;" horiz-adv-x="238" d="M295 548l15 -15l8 -16l-2 -16l-8 -26l-9 -16l-8 -16l-9 -16l-19 -28l-12 -14l-5 -9l-8 -12l-63 -116l-3 -13l-10 -20l-9 -17l-5 -18l-7 -29l-2 -6v-12l-7 -24v-21l5 -1l-2 -5l2 -21l5 -25l9 -15l-3 -8l11 -14l21 -18l11 -16l-1 -13l-15 -3l-29 8l-18 11l-20 15l-9 9 l-30 37l3 4l-5 6l-11 29l-9 47v27l4 34l5 5l-5 5l18 67l32 66l7 18l26 56l14 20l10 22l22 37l27 43l23 29l28 12z" />
<glyph unicode="&#xb0;" horiz-adv-x="0" />
<glyph unicode="&#xb1;" horiz-adv-x="461" />
<glyph unicode="&#xb2;" horiz-adv-x="725" d="M706 88q-16 -16 -11 -16q-6 0 -11 -1h-9q-3 0 -27 -3l-21 -2q-26 -4 -52 -7q-7 0 -11 -1l-2 -3h-18q-5 -1 -17 -5q2 0 -0.5 -0.5t-9 -2.5t-16.5 -4q-16 -2 -26 -3q-106 -19 -157 -32q-20 -3 -75 -14q-12 -3 -66 -14q-24 -6 -29 -6q-12 0 -37 7q-27 7 -27 12t-2 7l-4 2 q0 4 1 6q-3 3 -3 9v1q-1 2 -1.5 8t-1.5 11v6q-1 6 -1 21q-1 3 -1 12q0 15 18 48q4 2 8 7l20 25l190 192q70 79 104 126l20 35q0 26 -11 26q-2 0 -3 3.5t-2 3.5q-31 0 -44 -1q-9 0 -31 -6l-6 -3q-13 -4 -46 -15q-27 -16 -75 -37q-26 -2 -30 7q-12 8 -20 16q-3 14 -4 15 q2 8 19.5 23t36.5 25q56 34 116 57q5 0 28.5 7t30.5 7h57q12 -2 45 -11q36 -22 36 -27t5 -16q6 -10 4 -14q0 -13 -2 -29q0 -11 -1 -16q1 -9 0 -19q1 -14 -5 -42q0 -11 -7 -32q-1 -2 -9 -25q-1 -2 -41 -56q-21 -18 -27 -24q-1 -2 -3.5 -6t-3.5 -6q-3 -1 -36 -37 q-14 -9 -55 -53q-19 -14 -41 -33q-9 -12 -11 -15l-10 -10q-27 -27 -42 -45q-2 -1 -6.5 -4l-7.5 -5q-1 -2 -1 -5l48 7q15 0 23 1l8 4q23 1 58 6q1 1 5 2q15 0 30 1q11 1 25.5 2.5t15.5 1.5q12 0 22 1l5 -2h30q1 1 3 1q3 1 4 1h29q6 -1 15 -3q6 2 19 3q44 5 60 5q20 0 35 -10 q5 -2 14 -9l5 -3q15 -15 24 -25v-3z" />
<glyph unicode="&#xb3;" horiz-adv-x="475" d="M292 553l43 1l32 -7l24 -11l17 -16l19 -28l10 -16l2 -24l2 -26v-11l-7 -16l-14 -9l-24 -26l-17 -7l-20 -16l20 13l-11 -5l-3 -7l-20 -15l-6 -6l-19 -20l43 -12l45 -10l40 -38l12 -42l-8 -15l-3 -27v-24l-6 -9l-14 -11l-2 -6l-12 -8l-1 -7l-10 -6l-8 -4l-9 -11l1 -2 l-28 -14l-9 -7l-5 2l-8 -5l-18 -6l-10 -10l-23 -3l-19 -7l-31 -14l-26 -10l-12 -9l-6 2l-10 -3l-55 -22l-75 -30h-10l-20 -9l-6 2l-20 9l-11 -6l-9 -6l-15 7l5 8l-1 10l19 25l26 10l17 11l75 44l120 48l85 50l10 26l-11 32l-50 17l-37 1l-20 5l-22 11l-20 13l9 18l10 23l7 2 l8 12l16 18l69 57l4 3l30 35l14 23v12l-26 11l-34 -4l-24 -13l-57 -16l-40 -7l-31 12l-11 9l-3 15l3 14l21 24l26 13l76 37z" />
<glyph unicode="&#xb4;" horiz-adv-x="333" d="M256 854h4l5 -3l1 -4l-4 -1l-3 -8l1 -3l-5 -2l-8 -5v-3l3 -4l-4 -4l2 -8l-4 -3v-3l12 2v-1l-14 -11l-3 -10l-7 -11l-6 -7l-12 -11l-11 -8l-40 -24l-36 -16l-7 -1h-17l-12 4h-8l-6 3v4l-4 4l-5 14l1 5l-2 6l2 4l6 6v2l30 27l14 10l41 30l30 18l29 7z" />
<glyph unicode="&#xb5;" horiz-adv-x="389" d="M387 117q5 -20 5 -32q0 1 -1 -1.5l-3 -7.5t-5.5 -11t-8 -11.5t-10.5 -9t-13 -3.5q-17 0 -53 10q-5 1 -19 21t-17 20q-4 0 -9 -6q-48 -90 -77 -116q-2 -1 -35.5 -13.5t-34.5 -12.5q-14 0 -48 12q-5 9 -14 19q-9 -23 -18 -41q2 -6 2 -12q0 -1 -0.5 -3t-0.5 -3v3q0 9 -7 29 q-4 0 -7 -39q-12 -21 -21.5 -55.5t-19 -52.5t-28.5 -18t-19 30q0 17 8 36q4 11 8.5 50t8.5 61q-1 4 -1 19q36 152 112 357q22 34 31 62q4 16 9 16q10 0 33.5 -21.5t23.5 -32.5q0 -2 -4.5 -16t-4.5 -16q0 -1 -0.5 -9t-1.5 -15l10 -19q-1 -1 -2 -4t-2 -5q1 -1 1 -3l-4 -8 l-14 -49q-2 -5 -11.5 -21t-12.5 -28l-17 -51l-17 -33q-4 -24 -4 -34q0 -2 12 -8t12 -7h6q4 5 30 19q14 8 23.5 17t15 17.5t10.5 19t9 21.5l71 167q2 0 8.5 1.5t8.5 1.5q1 0 20.5 -14t24.5 -14q6 0 8 2q3 -3 8 -18.5t5 -20.5q0 -9 -9 -59l-10 -57q0 -16 16 -16q0 1 44 16z " />
<glyph unicode="&#x3bc;" horiz-adv-x="389" d="M387 117q5 -20 5 -32q0 1 -1 -1.5l-3 -7.5t-5.5 -11t-8 -11.5t-10.5 -9t-13 -3.5q-17 0 -53 10q-5 1 -19 21t-17 20q-4 0 -9 -6q-48 -90 -77 -116q-2 -1 -35.5 -13.5t-34.5 -12.5q-14 0 -48 12q-5 9 -14 19q-9 -23 -18 -41q2 -6 2 -12q0 -1 -0.5 -3t-0.5 -3v3q0 9 -7 29 q-4 0 -7 -39q-12 -21 -21.5 -55.5t-19 -52.5t-28.5 -18t-19 30q0 17 8 36q4 11 8.5 50t8.5 61q-1 4 -1 19q36 152 112 357q22 34 31 62q4 16 9 16q10 0 33.5 -21.5t23.5 -32.5q0 -2 -4.5 -16t-4.5 -16q0 -1 -0.5 -9t-1.5 -15l10 -19q-1 -1 -2 -4t-2 -5q1 -1 1 -3l-4 -8 l-14 -49q-2 -5 -11.5 -21t-12.5 -28l-17 -51l-17 -33q-4 -24 -4 -34q0 -2 12 -8t12 -7h6q4 5 30 19q14 8 23.5 17t15 17.5t10.5 19t9 21.5l71 167q2 0 8.5 1.5t8.5 1.5q1 0 20.5 -14t24.5 -14q6 0 8 2q3 -3 8 -18.5t5 -20.5q0 -9 -9 -59l-10 -57q0 -16 16 -16q0 1 44 16z " />
<glyph unicode="&#xb6;" horiz-adv-x="374" />
<glyph unicode="&#xb7;" horiz-adv-x="211" d="M75 310l26 -8l29 -5l7 -11l5 4l3 -2l8 -14l5 -10h2l3 5l4 -2l3 -5l9 -11l5 -32l-1 -16l1 -7l-5 2v-2l2 -5l-13 -7l-15 -4l-9 -12l-18 2h-4l-24 8l-25 16l-7 9l-9 2l2 3l-6 6v7l-16 9l-11 5l3 6h1v5l4 5l-2 7l4 4h5l3 18l22 24z" />
<glyph unicode="&#x2219;" horiz-adv-x="211" d="M75 310l26 -8l29 -5l7 -11l5 4l3 -2l8 -14l5 -10h2l3 5l4 -2l3 -5l9 -11l5 -32l-1 -16l1 -7l-5 2v-2l2 -5l-13 -7l-15 -4l-9 -12l-18 2h-4l-24 8l-25 16l-7 9l-9 2l2 3l-6 6v7l-16 9l-11 5l3 6h1v5l4 5l-2 7l4 4h5l3 18l22 24z" />
<glyph unicode="&#xb8;" horiz-adv-x="400" />
<glyph unicode="&#xb9;" horiz-adv-x="367" d="M412 578v-12l-2 -12l-3 -14l-15 -37l-11 -21l-6 -3l3 -7l-6 -6l-21 -42l-10 -7l-3 -7l-2 -4q-4 -8 -7 -11l-7 -14l2 -9l-9 -23l-5 -6l-4 -13l-17 -30l-5 -18l-3 -10l-5 -9l-1 -1v-3q0 -2 -0.5 -5t-0.5 -4l-1 -7l-5 -24v-7l-9 -27l-2 -15l-1 -14l-6 -2l3 -15h-4l2 -6 l-15 -46l-4 -18l-4 -5q-1 -1 -1.5 -3.5t-0.5 -3.5l1 -3l-4 -9v-1q-1 -1 -2 -5t-1 -5l2 -2l-13 -40q0 -1 1 -2q-1 -7 -5 -14v-8l-3 -3l-8 -23l-6 -5l-11 -21l-7 -21l-6 -10l-5 -2l-2 4q-3 -7 -7 -7h-1q-6 -2 -7 -3l-11 -10l-5 2q-6 -2 -12 -2q-14 2 -14 17l1 5q26 159 30 187 q13 110 82 380q-36 -31 -57.5 -45t-55.5 -20q-2 0 -21.5 -4.5t-28.5 -5.5q-24 3 -24 22q-1 31 52 69l50 42q15 11 52.5 41.5l62 49.5t54 35.5t46.5 16.5q10 0 14 -1h4l8 -2l2 -1l3 -1l1 -1q13 -5 16 -19v-1l4 -2l13 -20l3 -18l-2 -10z" />
<glyph unicode="&#xba;" horiz-adv-x="353" />
<glyph unicode="&#xbb;" horiz-adv-x="480" d="M50 47l-18 7l-12 14l-7 22l2 11l11 21l14 14l7 11l44 30l59 39l-32 26l-8 11l-28 34l-7 11l-5 13l-4 15v8l11 2l24 16l15 3l23 -14l4 -2l5 3l23 -25l36 -37l34 -48l5 -24l-16 -27l-29 -17l-32 -26l-61 -53l-46 -35zM264 372l14 -2l7 -5l4 -3h4l9 -11l82 -53l30 -34 l17 -28l4 -10v-4l4 -7l-1 -10l2 -4l-2 -26l-2 -12l-3 -2l-7 -8l-25 -21l-32 -16l-13 -9l-5 -1l-9 -1l-9 5l-8 -3l-2 -7l-10 -1l-3 -4l-9 -2l-26 -5l-10 -3h-4l-11 -2l-9 -2l-17 -6l-24 -14l-3 3l-22 -13l-21 -7l-5 -3h-11v14l4 20l13 23l20 15l36 20l111 44l11 8l-41 34 l-25 26l-12 22l-9 14l-8 12l-4 25l-3 9v8l5 11l7 13l5 3z" />
<glyph unicode="&#xbc;" horiz-adv-x="1209" d="M954 633h6l11 -10l10 -32l-5 -44l8 -7l-6 -31l-16 -65l-40 -141l10 2l21 9l22 4l23 11l43 12l7 3l13 3l64 15l23 6l61 13l55 10h7l4 -5l-1 -7l-8 -17l-18 -11v-15l-100 -37l-17 -9l-57 -23l-3 -6l-66 -25l-102 -43l-3 -7h-7l-11 -13l8 -12l-11 -33l-17 -8l2 -11l-7 -31 l-14 -51l-16 -60l-19 -51l-6 -24l-12 -27l-8 -14l-6 -22l-8 -14l-4 -2l-2 33l-7 -6v45l4 30l11 102l21 118v15l-29 -6l-19 6l-32 2l-31 13l-11 6l-13 12l-14 17l-2 24v23l14 44l33 89l41 108l28 91l5 2l24 21l9 3l8 -4l8 -14l-3 -21l-22 -38l-12 -42l-42 -100l-11 -69v-33 l3 -27l11 -9l40 5l46 11l36 145l38 126l24 61l5 18zM713 556l-30 -72q-17 -37 -218 -440l-65 -125q-7 -25 -9 -36q-12 -27 -46 -18q-45 15 -38 48l44 103q59 135 89 180l32 55l25 41.5l20 34.5t22 43.5l31 68.5l38 95q8 17 17 32t9 16q9 29 10 29q3 9 16 13.5t32 -0.5 q17 -5 29 -19t7 -24q-2 -7 -9 -16zM412 578v-12l-2 -12l-3 -14l-15 -37l-11 -21l-6 -3l3 -7l-6 -6l-21 -42l-10 -7l-3 -7l-2 -4q-4 -8 -7 -11l-7 -14l2 -9l-9 -23l-5 -6l-4 -13l-17 -30l-5 -18l-3 -10l-5 -9l-1 -1v-3q0 -2 -0.5 -5t-0.5 -4l-1 -7l-5 -24v-7l-9 -27l-2 -15 l-1 -14l-6 -2l3 -15h-4l2 -6l-15 -46l-4 -18l-4 -5q-1 -1 -1.5 -3.5t-0.5 -3.5l1 -3l-4 -9v-1q-1 -1 -2 -5t-1 -5l2 -2l-13 -40q0 -1 1 -2q-1 -7 -5 -14v-8l-3 -3l-8 -23l-6 -5l-11 -21l-7 -21l-6 -10l-5 -2l-2 4q-3 -7 -7 -7h-1q-6 -2 -7 -3l-11 -10l-5 2q-6 -2 -12 -2 q-14 2 -14 17l1 5q26 159 30 187q13 110 82 380q-36 -31 -57.5 -45t-55.5 -20q-2 0 -21.5 -4.5t-28.5 -5.5q-24 3 -24 22q-1 31 52 69l50 42q15 11 52.5 41.5l62 49.5t54 35.5t46.5 16.5q10 0 14 -1h4l8 -2l2 -1l3 -1l1 -1q13 -5 16 -19v-1l4 -2l13 -20l3 -18l-2 -10z" />
<glyph unicode="&#xbd;" horiz-adv-x="1344" d="M1325 88q-16 -16 -11 -16q-6 0 -11 -1h-9q-3 0 -27 -3l-21 -2q-26 -4 -52 -7q-7 0 -11 -1l-2 -3h-18q-5 -1 -17 -5q2 0 -0.5 -0.5t-9 -2.5t-16.5 -4q-16 -2 -26 -3q-106 -19 -157 -32q-20 -3 -75 -14q-12 -3 -66 -14q-24 -6 -29 -6q-12 0 -37 7q-27 7 -27 12t-2 7l-4 2 q0 4 1 6q-3 3 -3 9v1q-1 2 -1.5 8t-1.5 11v6q-1 6 -1 21q-1 3 -1 12q0 15 18 48q4 2 8 7l20 25l190 192q70 79 104 126l20 35q0 26 -11 26q-2 0 -3 3.5t-2 3.5q-31 0 -44 -1q-9 0 -31 -6l-6 -3q-13 -4 -46 -15q-27 -16 -75 -37q-26 -2 -30 7q-12 8 -20 16q-3 14 -4 15 q2 8 19.5 23t36.5 25q56 34 116 57q5 0 28.5 7t30.5 7h57q12 -2 45 -11q36 -22 36 -27t5 -16q6 -10 4 -14q0 -13 -2 -29q0 -11 -1 -16q1 -9 0 -19q1 -14 -5 -42q0 -11 -7 -32q-1 -2 -9 -25q-1 -2 -41 -56q-21 -18 -27 -24q-1 -2 -3.5 -6t-3.5 -6q-3 -1 -36 -37 q-14 -9 -55 -53q-19 -14 -41 -33q-9 -12 -11 -15l-10 -10q-27 -27 -42 -45q-2 -1 -6.5 -4l-7.5 -5q-1 -2 -1 -5l48 7q15 0 23 1l8 4q23 1 58 6q1 1 5 2q15 0 30 1q11 1 25.5 2.5t15.5 1.5q12 0 22 1l5 -2h30q1 1 3 1q3 1 4 1h29q6 -1 15 -3q6 2 19 3q44 5 60 5q20 0 35 -10 q5 -2 14 -9l5 -3q15 -15 24 -25v-3zM713 556l-30 -72q-17 -37 -218 -440l-65 -125q-7 -25 -9 -36q-12 -27 -46 -18q-45 15 -38 48l44 103q59 135 89 180l32 55l25 41.5l20 34.5t22 43.5l31 68.5l38 95q8 17 17 32t9 16q9 29 10 29q3 9 16 13.5t32 -0.5q17 -5 29 -19t7 -24 q-2 -7 -9 -16zM412 578v-12l-2 -12l-3 -14l-15 -37l-11 -21l-6 -3l3 -7l-6 -6l-21 -42l-10 -7l-3 -7l-2 -4q-4 -8 -7 -11l-7 -14l2 -9l-9 -23l-5 -6l-4 -13l-17 -30l-5 -18l-3 -10l-5 -9l-1 -1v-3q0 -2 -0.5 -5t-0.5 -4l-1 -7l-5 -24v-7l-9 -27l-2 -15l-1 -14l-6 -2l3 -15 h-4l2 -6l-15 -46l-4 -18l-4 -5q-1 -1 -1.5 -3.5t-0.5 -3.5l1 -3l-4 -9v-1q-1 -1 -2 -5t-1 -5l2 -2l-13 -40q0 -1 1 -2q-1 -7 -5 -14v-8l-3 -3l-8 -23l-6 -5l-11 -21l-7 -21l-6 -10l-5 -2l-2 4q-3 -7 -7 -7h-1q-6 -2 -7 -3l-11 -10l-5 2q-6 -2 -12 -2q-14 2 -14 17l1 5 q26 159 30 187q13 110 82 380q-36 -31 -57.5 -45t-55.5 -20q-2 0 -21.5 -4.5t-28.5 -5.5q-24 3 -24 22q-1 31 52 69l50 42q15 11 52.5 41.5l62 49.5t54 35.5t46.5 16.5q10 0 14 -1h4l8 -2l2 -1l3 -1l1 -1q13 -5 16 -19v-1l4 -2l13 -20l3 -18l-2 -10z" />
<glyph unicode="&#xbe;" horiz-adv-x="1317" d="M1062 633h6l11 -10l10 -32l-5 -44l8 -7l-6 -31l-16 -65l-40 -141l10 2l21 9l22 4l23 11l43 12l7 3l13 3l64 15l23 6l61 13l55 10h7l4 -5l-1 -7l-8 -17l-18 -11v-15l-100 -37l-17 -9l-57 -23l-3 -6l-66 -25l-102 -43l-3 -7h-7l-11 -13l8 -12l-11 -33l-17 -8l2 -11l-7 -31 l-14 -51l-16 -60l-19 -51l-6 -24l-12 -27l-8 -14l-6 -22l-8 -14l-4 -2l-2 33l-7 -6v45l4 30l11 102l21 118v15l-29 -6l-19 6l-32 2l-31 13l-11 6l-13 12l-14 17l-2 24v23l14 44l33 89l41 108l28 91l5 2l24 21l9 3l8 -4l8 -14l-3 -21l-22 -38l-12 -42l-42 -100l-11 -69v-33 l3 -27l11 -9l40 5l46 11l36 145l38 126l24 61l5 18zM821 556l-30 -72q-17 -37 -218 -440l-65 -125q-7 -25 -9 -36q-12 -27 -46 -18q-45 15 -38 48l44 103q59 135 89 180l32 55l25 41.5l20 34.5t22 43.5l31 68.5l38 95q8 17 17 32t9 16q9 29 10 29q3 9 16 13.5t32 -0.5 q17 -5 29 -19t7 -24q-2 -7 -9 -16zM292 553l43 1l32 -7l24 -11l17 -16l19 -28l10 -16l2 -24l2 -26v-11l-7 -16l-14 -9l-24 -26l-17 -7l-20 -16l20 13l-11 -5l-3 -7l-20 -15l-6 -6l-19 -20l43 -12l45 -10l40 -38l12 -42l-8 -15l-3 -27v-24l-6 -9l-14 -11l-2 -6l-12 -8l-1 -7 l-10 -6l-8 -4l-9 -11l1 -2l-28 -14l-9 -7l-5 2l-8 -5l-18 -6l-10 -10l-23 -3l-19 -7l-31 -14l-26 -10l-12 -9l-6 2l-10 -3l-55 -22l-75 -30h-10l-20 -9l-6 2l-20 9l-11 -6l-9 -6l-15 7l5 8l-1 10l19 25l26 10l17 11l75 44l120 48l85 50l10 26l-11 32l-50 17l-37 1l-20 5 l-22 11l-20 13l9 18l10 23l7 2l8 12l16 18l69 57l4 3l30 35l14 23v12l-26 11l-34 -4l-24 -13l-57 -16l-40 -7l-31 12l-11 9l-3 15l3 14l21 24l26 13l76 37z" />
<glyph unicode="&#xbf;" horiz-adv-x="475" d="M32 0q-9 16 -10 32q0 18 6 36q0 2 2 10q4 10 5 16q11 12 29 37q8 10 22 20q2 2 10 12l30 29q9 12 24 25l31.5 27l31.5 27.5t29 29t25 31.5t20 34t29 36.5t37 19.5q12 0 12 -13q0 -4 -1 -7l4 -4q0 -2 -19 -41q-36 -71 -80 -126q-4 -5 -34.5 -38.5t-47 -56t-20.5 -40.5v-2 q0 -17 4 -31q1 -1 2.5 -4t2.5 -4q4 -4 9 -4q6 -10 12 -9q-2 -5 1 -5l4 2q0 -1 2 -1q4 -3 5 -8q9 -3 20 -3q26 0 67.5 26.5t58.5 27.5q8 0 13.5 -6.5t5.5 -14.5h5q11 0 11 -7q0 -3 -4 -10l1 -3q0 -15 -30.5 -44t-55.5 -41l-50 -22.5t-41.5 -13.5t-49.5 -7q-42 0 -79 24.5 t-49 63.5zM317 528q0 1 -1 2l-4 18q0 2 2 6q7 24 20 46q22 13 40 28q4 2 16 2h3q14 -3 19 -8q10 -10 17 -15q4 -8 7 -13q1 -1 3 -5l-2 -6q3 -2 7.5 -7.5t6.5 -7.5q-3 -10 -23 -34q0 -4 -4 -11q-1 0 -4.5 -1.5t-5.5 -2.5l-1 -3q-2 -2 -16 -14q-2 -2 -7 -4.5t-8 -4.5 q-2 -1 -19 1q-1 0 -6.5 2t-10.5 4l-4 -3q-1 1 -2 1l-6 9q-1 -1 -5 -1q-8 9 -8 23q-2 -1 -4 -1z" />
<glyph unicode="&#xc0;" horiz-adv-x="399" d="M417 570q-1 -8 -2 -8l-2 -2h-3l-3 -3h-2q-5 -3 -13 -3q-12 0 -27 7q-8 3 -24 10q-28 13 -49 29q-40 30 -45 33l-22 18q-8 10 -16 18q-1 1 -9 17q-7 11 -7 22l1 1q1 16 10 16q8 0 13.5 0.5t7.5 0.5t0 1q5 0 9 -1l6 -2q4 -2 7 -3l1 -1q2 0 2 -1l5 -2q3 -2 5 -5l78 -68 q1 -1 17 -15.5t24 -22.5q38 -35 38 -36zM287 609q17 0 37 -7q3 -3 9 -4q1 -1 7.5 -5t10.5 -6q17 -19 21 -33q4 -10 6 -16q0 -8 1 -14q0 -3 2 -9v-36q-1 -6 -1 -28q-1 -5 -1 -18q-2 -13 -4 -48q0 -2 -5 -38q0 -7 -1 -12q-4 -13 -5 -26q-3 -8 -5 -40q-1 -3 -1 -10l-1 -1 q-2 -3 -3 -13q1 -1 1 -3l-2 -6l-2 -6q0 -2 3 -5q8 -8 8 -12q-1 -3 -1 -6q1 0 1 -1q-1 -5 -7 -13l-2 -2t-1 -2q1 -5 1 -11q-1 -1 -1 -2q-1 -2 -1 -3q0 -5 1 -8q-1 -4 -1 -16q0 -2 -3 -5q0 -3 1 -8t1 -7t1 -4q-1 -3 -1 -10q1 -1 1.5 -4t0.5 -4q-1 -1 -1 -3q0 -4 1 -7 q-1 -3 -1 -11q1 -7 5 -47q1 -3 1 -10v-5q1 -3 1.5 -8.5t0.5 -8.5q0 -4 -1 -7v-6q0 -2 -1 -13t-1 -13q1 -2 1 -8q-1 0 -1 -1t-1 -2q-2 -10 -5 -16q0 -3 -6 -11l-5 -7q-4 -1 -7 2l-1 -5l2 -10q-3 -2 -4 -1q-6 19 -15 55v3q-1 6 -5 20.5t-6 23.5q-1 3 -1.5 8t-0.5 8 q-6 28 -8 43q-1 3 -1.5 9t-0.5 9l-9 6q-3 5 -13 15q-6 8 -20 22q-5 6 -17 17q-6 -2 -10 -3q-9 -1 -21 -3q-1 0 -1 -1h-1q-10 -1 -57 -7q-9 -19 -10 -31q-14 -36 -23 -63l-3 -9l-2 -6l-4 -13q-4 -10 -5 -14l-7 -17q-5 -11 -9 -31q-2 -2 -6 -8q-17 -13 -28 -13q-9 0 -19 10 q-15 15 -15 32q0 15 9 38q10 35 19 62l17 53l6 18q4 6 6 15q-2 7 -3 18q1 5 5 17q1 2 6 17v1l18 15q2 5 8 19q3 10 22 54q1 1 7 19q1 0 4 6q40 84 71 157q2 2 3 5l4 9q10 20 23 49q2 5 6 9q11 24 30 50l5 2q8 5 10 5zM275 472q-6 0 -33 -68q-3 -5 -25 -63q-2 -3 -23 -57 q-3 -8 -14 -40q-1 -4 -3 -14h22q4 0 17 1t28 2l31 2l1 1q0 2 1 2q0 5 2 59q4 64 4 104q0 14 -1 33q0 11 -1 22q-7 15 -6 16z" />
<glyph unicode="&#xc1;" horiz-adv-x="399" d="M450 854h4l5 -3l1 -4l-4 -1l-3 -8l1 -3l-5 -2l-8 -5v-3l3 -4l-4 -4l2 -8l-4 -3v-3l12 2v-1l-14 -11l-3 -10l-7 -11l-6 -7l-12 -11l-11 -8l-40 -24l-36 -16l-7 -1h-17l-12 4h-8l-6 3v4l-4 4l-5 14l1 5l-2 6l2 4l6 6v2l30 27l14 10l41 30l30 18l29 7zM287 609q17 0 37 -7 q3 -3 9 -4q1 -1 7.5 -5t10.5 -6q17 -19 21 -33q4 -10 6 -16q0 -8 1 -14q0 -3 2 -9v-36q-1 -6 -1 -28q-1 -5 -1 -18q-2 -13 -4 -48q0 -2 -5 -38q0 -7 -1 -12q-4 -13 -5 -26q-3 -8 -5 -40q-1 -3 -1 -10l-1 -1q-2 -3 -3 -13q1 -1 1 -3l-2 -6l-2 -6q0 -2 3 -5q8 -8 8 -12 q-1 -3 -1 -6q1 0 1 -1q-1 -5 -7 -13l-2 -2t-1 -2q1 -5 1 -11q-1 -1 -1 -2q-1 -2 -1 -3q0 -5 1 -8q-1 -4 -1 -16q0 -2 -3 -5q0 -3 1 -8t1 -7t1 -4q-1 -3 -1 -10q1 -1 1.5 -4t0.5 -4q-1 -1 -1 -3q0 -4 1 -7q-1 -3 -1 -11q1 -7 5 -47q1 -3 1 -10v-5q1 -3 1.5 -8.5t0.5 -8.5 q0 -4 -1 -7v-6q0 -2 -1 -13t-1 -13q1 -2 1 -8q-1 0 -1 -1t-1 -2q-2 -10 -5 -16q0 -3 -6 -11l-5 -7q-4 -1 -7 2l-1 -5l2 -10q-3 -2 -4 -1q-6 19 -15 55v3q-1 6 -5 20.5t-6 23.5q-1 3 -1.5 8t-0.5 8q-6 28 -8 43q-1 3 -1.5 9t-0.5 9l-9 6q-3 5 -13 15q-6 8 -20 22q-5 6 -17 17 q-6 -2 -10 -3q-9 -1 -21 -3q-1 0 -1 -1h-1q-10 -1 -57 -7q-9 -19 -10 -31q-14 -36 -23 -63l-3 -9l-2 -6l-4 -13q-4 -10 -5 -14l-7 -17q-5 -11 -9 -31q-2 -2 -6 -8q-17 -13 -28 -13q-9 0 -19 10q-15 15 -15 32q0 15 9 38q10 35 19 62l17 53l6 18q4 6 6 15q-2 7 -3 18 q1 5 5 17q1 2 6 17v1l18 15q2 5 8 19q3 10 22 54q1 1 7 19q1 0 4 6q40 84 71 157q2 2 3 5l4 9q10 20 23 49q2 5 6 9q11 24 30 50l5 2q8 5 10 5zM275 472q-6 0 -33 -68q-3 -5 -25 -63q-2 -3 -23 -57q-3 -8 -14 -40q-1 -4 -3 -14h22q4 0 17 1t28 2l31 2l1 1q0 2 1 2q0 5 2 59 q4 64 4 104q0 14 -1 33q0 11 -1 22q-7 15 -6 16z" />
<glyph unicode="&#xc2;" horiz-adv-x="399" d="M287 609q17 0 37 -7q3 -3 9 -4q1 -1 7.5 -5t10.5 -6q17 -19 21 -33q4 -10 6 -16q0 -8 1 -14q0 -3 2 -9v-36q-1 -6 -1 -28q-1 -5 -1 -18q-2 -13 -4 -48q0 -2 -5 -38q0 -7 -1 -12q-4 -13 -5 -26q-3 -8 -5 -40q-1 -3 -1 -10l-1 -1q-2 -3 -3 -13q1 -1 1 -3l-2 -6l-2 -6 q0 -2 3 -5q8 -8 8 -12q-1 -3 -1 -6q1 0 1 -1q-1 -5 -7 -13l-2 -2t-1 -2q1 -5 1 -11q-1 -1 -1 -2q-1 -2 -1 -3q0 -5 1 -8q-1 -4 -1 -16q0 -2 -3 -5q0 -3 1 -8t1 -7t1 -4q-1 -3 -1 -10q1 -1 1.5 -4t0.5 -4q-1 -1 -1 -3q0 -4 1 -7q-1 -3 -1 -11q1 -7 5 -47q1 -3 1 -10v-5 q1 -3 1.5 -8.5t0.5 -8.5q0 -4 -1 -7v-6q0 -2 -1 -13t-1 -13q1 -2 1 -8q-1 0 -1 -1t-1 -2q-2 -10 -5 -16q0 -3 -6 -11l-5 -7q-4 -1 -7 2l-1 -5l2 -10q-3 -2 -4 -1q-6 19 -15 55v3q-1 6 -5 20.5t-6 23.5q-1 3 -1.5 8t-0.5 8q-6 28 -8 43q-1 3 -1.5 9t-0.5 9l-9 6q-3 5 -13 15 q-6 8 -20 22q-5 6 -17 17q-6 -2 -10 -3q-9 -1 -21 -3q-1 0 -1 -1h-1q-10 -1 -57 -7q-9 -19 -10 -31q-14 -36 -23 -63l-3 -9l-2 -6l-4 -13q-4 -10 -5 -14l-7 -17q-5 -11 -9 -31q-2 -2 -6 -8q-17 -13 -28 -13q-9 0 -19 10q-15 15 -15 32q0 15 9 38q10 35 19 62l17 53l6 18 q4 6 6 15q-2 7 -3 18q1 5 5 17q1 2 6 17v1l18 15q2 5 8 19q3 10 22 54q1 1 7 19q1 0 4 6q40 84 71 157q2 2 3 5l4 9q10 20 23 49q2 5 6 9q11 24 30 50l5 2q8 5 10 5zM275 472q-6 0 -33 -68q-3 -5 -25 -63q-2 -3 -23 -57q-3 -8 -14 -40q-1 -4 -3 -14h22q4 0 17 1t28 2l31 2 l1 1q0 2 1 2q0 5 2 59q4 64 4 104q0 14 -1 33q0 11 -1 22q-7 15 -6 16zM457 716q0 -5 -6 -20q-6 -3 -10 -3q-11 0 -16 3q-9 9 -43 62l-22 33q-6 8 -13 9q-1 -1 -8 -3q-5 -5 -33 -37l-9 -12q-1 -2 -39 -46q-13 -10 -16 -23q-14 -8 -20 -8q-11 2 -14 6q-8 4 -16 25q0 1 1 2 q0 9 19 36l24 31q18 23 54 64q5 4 17 16q8 6 13 11q2 2 9 5q17 0 24 -7q2 -1 6 -3.5t6 -3.5q4 -3 11.5 -9.5t11.5 -9.5q3 -6 12 -16l33 -66q8 -15 16 -24v-1q2 -3 8 -11z" />
<glyph unicode="&#xc3;" horiz-adv-x="399" d="M287 609q17 0 37 -7q3 -3 9 -4q1 -1 7.5 -5t10.5 -6q17 -19 21 -33q4 -10 6 -16q0 -8 1 -14q0 -3 2 -9v-36q-1 -6 -1 -28q-1 -5 -1 -18q-2 -13 -4 -48q0 -2 -5 -38q0 -7 -1 -12q-4 -13 -5 -26q-3 -8 -5 -40q-1 -3 -1 -10l-1 -1q-2 -3 -3 -13q1 -1 1 -3l-2 -6l-2 -6 q0 -2 3 -5q8 -8 8 -12q-1 -3 -1 -6q1 0 1 -1q-1 -5 -7 -13l-2 -2t-1 -2q1 -5 1 -11q-1 -1 -1 -2q-1 -2 -1 -3q0 -5 1 -8q-1 -4 -1 -16q0 -2 -3 -5q0 -3 1 -8t1 -7t1 -4q-1 -3 -1 -10q1 -1 1.5 -4t0.5 -4q-1 -1 -1 -3q0 -4 1 -7q-1 -3 -1 -11q1 -7 5 -47q1 -3 1 -10v-5 q1 -3 1.5 -8.5t0.5 -8.5q0 -4 -1 -7v-6q0 -2 -1 -13t-1 -13q1 -2 1 -8q-1 0 -1 -1t-1 -2q-2 -10 -5 -16q0 -3 -6 -11l-5 -7q-4 -1 -7 2l-1 -5l2 -10q-3 -2 -4 -1q-6 19 -15 55v3q-1 6 -5 20.5t-6 23.5q-1 3 -1.5 8t-0.5 8q-6 28 -8 43q-1 3 -1.5 9t-0.5 9l-9 6q-3 5 -13 15 q-6 8 -20 22q-5 6 -17 17q-6 -2 -10 -3q-9 -1 -21 -3q-1 0 -1 -1h-1q-10 -1 -57 -7q-9 -19 -10 -31q-14 -36 -23 -63l-3 -9l-2 -6l-4 -13q-4 -10 -5 -14l-7 -17q-5 -11 -9 -31q-2 -2 -6 -8q-17 -13 -28 -13q-9 0 -19 10q-15 15 -15 32q0 15 9 38q10 35 19 62l17 53l6 18 q4 6 6 15q-2 7 -3 18q1 5 5 17q1 2 6 17v1l18 15q2 5 8 19q3 10 22 54q1 1 7 19q1 0 4 6q40 84 71 157q2 2 3 5l4 9q10 20 23 49q2 5 6 9q11 24 30 50l5 2q8 5 10 5zM275 472q-6 0 -33 -68q-3 -5 -25 -63q-2 -3 -23 -57q-3 -8 -14 -40q-1 -4 -3 -14h22q4 0 17 1t28 2l31 2 l1 1q0 2 1 2q0 5 2 59q4 64 4 104q0 14 -1 33q0 11 -1 22q-7 15 -6 16zM506 817q-2 -5 -6 -11l1 -1q-5 -11 -19 -27q-1 -3 -6 -13l-2 -1v-3q-2 -6 -9 -16v-3q0 -2 1 -3q-6 -10 -10 -16q1 1 1 0q-1 0 -1 -2q-5 -3 -13 -10l-1 -1q-7 -7 -11 -9q-14 -6 -40 -6q-34 3 -71 23 q-2 2 -14 9q-2 2 -12 8q-2 0 -10 4l-8 4l-6 -4q-7 -4 -8 -19q-6 -16 -22 -16q-5 0 -8 1h-4q-1 1 -3.5 1.5t-3.5 0.5h-4q-5 1 -10 10q-2 2 -6 13q1 0 1 1t1 2q-1 1 -1 4q0 7 4 22q15 34 25 42q21 19 35 17q3 1 10 1q2 0 9.5 -1.5t13.5 -2.5q1 -1 4 -2t5 -2l28 -18 q13 -13 21 -22q1 -1 3 -5v-1q4 -9 9 -17l1 -1l6 -2h7q12 2 24 11l39 46q18 19 24 19l21 1q2 0 10 -2q1 -1 5 -3z" />
<glyph unicode="&#xc4;" horiz-adv-x="399" d="M232 761h2l8 -3l9 -4l8 1l-1 -7l10 -4l14 -13l6 -7l14 -33l1 -7v-12l-7 -12l-7 -8l-1 -2l-15 -2l-17 -2l-18 7l-8 4l-2 2l-24 17l-11 10l-2 5v13l-2 11l2 13l8 16l18 14zM387 759l22 -7l9 2l12 -15l14 -12l9 -24v-27l-13 -14l-5 -3l-10 -3l-26 4l-20 10l-21 19l-1 15 l-4 6l11 34l10 7l10 3zM287 609q17 0 37 -7q3 -3 9 -4q1 -1 7.5 -5t10.5 -6q17 -19 21 -33q4 -10 6 -16q0 -8 1 -14q0 -3 2 -9v-36q-1 -6 -1 -28q-1 -5 -1 -18q-2 -13 -4 -48q0 -2 -5 -38q0 -7 -1 -12q-4 -13 -5 -26q-3 -8 -5 -40q-1 -3 -1 -10l-1 -1q-2 -3 -3 -13 q1 -1 1 -3l-2 -6l-2 -6q0 -2 3 -5q8 -8 8 -12q-1 -3 -1 -6q1 0 1 -1q-1 -5 -7 -13l-2 -2t-1 -2q1 -5 1 -11q-1 -1 -1 -2q-1 -2 -1 -3q0 -5 1 -8q-1 -4 -1 -16q0 -2 -3 -5q0 -3 1 -8t1 -7t1 -4q-1 -3 -1 -10q1 -1 1.5 -4t0.5 -4q-1 -1 -1 -3q0 -4 1 -7q-1 -3 -1 -11 q1 -7 5 -47q1 -3 1 -10v-5q1 -3 1.5 -8.5t0.5 -8.5q0 -4 -1 -7v-6q0 -2 -1 -13t-1 -13q1 -2 1 -8q-1 0 -1 -1t-1 -2q-2 -10 -5 -16q0 -3 -6 -11l-5 -7q-4 -1 -7 2l-1 -5l2 -10q-3 -2 -4 -1q-6 19 -15 55v3q-1 6 -5 20.5t-6 23.5q-1 3 -1.5 8t-0.5 8q-6 28 -8 43q-1 3 -1.5 9 t-0.5 9l-9 6q-3 5 -13 15q-6 8 -20 22q-5 6 -17 17q-6 -2 -10 -3q-9 -1 -21 -3q-1 0 -1 -1h-1q-10 -1 -57 -7q-9 -19 -10 -31q-14 -36 -23 -63l-3 -9l-2 -6l-4 -13q-4 -10 -5 -14l-7 -17q-5 -11 -9 -31q-2 -2 -6 -8q-17 -13 -28 -13q-9 0 -19 10q-15 15 -15 32q0 15 9 38 q10 35 19 62l17 53l6 18q4 6 6 15q-2 7 -3 18q1 5 5 17q1 2 6 17v1l18 15q2 5 8 19q3 10 22 54q1 1 7 19q1 0 4 6q40 84 71 157q2 2 3 5l4 9q10 20 23 49q2 5 6 9q11 24 30 50l5 2q8 5 10 5zM275 472q-6 0 -33 -68q-3 -5 -25 -63q-2 -3 -23 -57q-3 -8 -14 -40q-1 -4 -3 -14 h22q4 0 17 1t28 2l31 2l1 1q0 2 1 2q0 5 2 59q4 64 4 104q0 14 -1 33q0 11 -1 22q-7 15 -6 16z" />
<glyph unicode="&#xc5;" horiz-adv-x="399" d="M287 609q17 0 37 -7q3 -3 9 -4q1 -1 7.5 -5t10.5 -6q17 -19 21 -33q4 -10 6 -16q0 -8 1 -14q0 -3 2 -9v-36q-1 -6 -1 -28q-1 -5 -1 -18q-2 -13 -4 -48q0 -2 -5 -38q0 -7 -1 -12q-4 -13 -5 -26q-3 -8 -5 -40q-1 -3 -1 -10l-1 -1q-2 -3 -3 -13q1 -1 1 -3l-2 -6l-2 -6 q0 -2 3 -5q8 -8 8 -12q-1 -3 -1 -6q1 0 1 -1q-1 -5 -7 -13l-2 -2t-1 -2q1 -5 1 -11q-1 -1 -1 -2q-1 -2 -1 -3q0 -5 1 -8q-1 -4 -1 -16q0 -2 -3 -5q0 -3 1 -8t1 -7t1 -4q-1 -3 -1 -10q1 -1 1.5 -4t0.5 -4q-1 -1 -1 -3q0 -4 1 -7q-1 -3 -1 -11q1 -7 5 -47q1 -3 1 -10v-5 q1 -3 1.5 -8.5t0.5 -8.5q0 -4 -1 -7v-6q0 -2 -1 -13t-1 -13q1 -2 1 -8q-1 0 -1 -1t-1 -2q-2 -10 -5 -16q0 -3 -6 -11l-5 -7q-4 -1 -7 2l-1 -5l2 -10q-3 -2 -4 -1q-6 19 -15 55v3q-1 6 -5 20.5t-6 23.5q-1 3 -1.5 8t-0.5 8q-6 28 -8 43q-1 3 -1.5 9t-0.5 9l-9 6q-3 5 -13 15 q-6 8 -20 22q-5 6 -17 17q-6 -2 -10 -3q-9 -1 -21 -3q-1 0 -1 -1h-1q-10 -1 -57 -7q-9 -19 -10 -31q-14 -36 -23 -63l-3 -9l-2 -6l-4 -13q-4 -10 -5 -14l-7 -17q-5 -11 -9 -31q-2 -2 -6 -8q-17 -13 -28 -13q-9 0 -19 10q-15 15 -15 32q0 15 9 38q10 35 19 62l17 53l6 18 q4 6 6 15q-2 7 -3 18q1 5 5 17q1 2 6 17v1l18 15q2 5 8 19q3 10 22 54q1 1 7 19q1 0 4 6q40 84 71 157q2 2 3 5l4 9q10 20 23 49q2 5 6 9q11 24 30 50l5 2q8 5 10 5zM275 472q-6 0 -33 -68q-3 -5 -25 -63q-2 -3 -23 -57q-3 -8 -14 -40q-1 -4 -3 -14h22q4 0 17 1t28 2l31 2 l1 1q0 2 1 2q0 5 2 59q4 64 4 104q0 14 -1 33q0 11 -1 22q-7 15 -6 16zM259 730q0 4 2 18l7 17v5q3 3 4 5q17 32 31 42q7 5 24 12q2 1 8 2.5t9 2.5q4 -1 26 -6q4 -4 12 -9l9 -9q3 -3 6 -4l13 -16q3 -2 6 -6q7 -14 9 -20q2 -9 2.5 -12t0.5 -1q0 -28 -7 -46l-6 -6 q-11 -11 -33 -25q-38 -23 -51 -16q-1 0 -7 -1t-8 -1q-5 0 -18.5 5t-16.5 8q-15 15 -18.5 25.5t-3.5 35.5zM376 748q0 29 -21 29q-3 0 -13 -10l-11 -12l-1 -1q0 -2 -1 -2q-17 -11 -17 -34q0 -18 9 -18q0 3 30 19q25 13 25 29z" />
<glyph unicode="&#xc6;" horiz-adv-x="689" d="M753 529q0 -5 -4 -6l-48 -12q-10 -4 -34 -6q-24 -7 -29 -8q-1 1 -4 1l-66 -9q-14 0 -20 -2q-1 -1 -3 -1t-3 1q-2 -1 -8 -1q-4 -1 -7 -1q-6 -1 -15 -3h-16q-2 -1 -6 -1q-2 1 -5 1t-4 1q-34 -34 -38 -39q-9 -5 -16 -14q-3 -15 -10 -64q-1 -5 -1 -14q2 -4 6 -9q2 0 10 -18 q8 -17 11 -17q1 0 3 -6l2 -5q1 -7 8 -15q2 0 15.5 1.5t25.5 3.5q1 0 42 9l15 2l4 2q12 0 15 -1q4 0 6 1q6 -2 7 -2q1 1 5 1q7 0 14 -7q4 0 8 -7q-1 -1 -1 -3q4 -1 8 -10q-4 -7 -14 -15q0 -1 -46 -10q-50 -13 -60 -13q-1 -1 -2 -1q-2 -1 -3 -1q-16 -1 -55 -6q-10 -11 -25 -21 q-3 -5 -13 -15l-3 -3q0 -11 -0.5 -20t-1 -16t-0.5 -12t-0.5 -8t-1 -4t-0.5 0q3 -33 13 -49q8 -12 15 -18q35 -21 76 -21q2 -1 5 -1.5t5 -0.5q15 -1 28 1q5 0 8 1q1 -1 3 -1l10 5h8q2 -2 4 -2l4 2q1 -1 3 -1l-4 -2q0 1 -1 2q-1 0 0 1q-1 -4 0 -11q7 -4 7 -27v-4l-5 -4l-5 -5 l-41 -12q-6 -5 -37 -9q-24 -3 -47 -4q-3 0 -12 3l-1 -1q-1 -1 -2 -1q-8 0 -53 19q-3 1 -10 5t-11 6l-27 24q-1 3 -6 8l-13 27q-4 11 -12 31l-9 64q-10 3 -20 13l-1 1q-9 5 -17 14h-22q-2 -1 -5.5 -1.5t-5.5 -0.5q-10 -8 -16 -12q-6 -8 -33 -32q-14 -14 -37 -33l-20 -20 q-10 -16 -10 -17q-2 -7 -12 -25l-11 -22l-13 -13q-3 -3 -14 -10q-6 0 -9 -1h-1l-1 1h-1l2 4l1.5 4.5t1.5 0.5v1q0 -5 -11 -5q-4 1 -4 20q1 18 -1 23l2 13v6q0 -1 1.5 2t4.5 10.5t8 19t11 27.5q5 10 6 24l3 27q1 2 1.5 5t0.5 5l4 4v6q3 4 6 14q4 3 7 7h3q3 1 8 6l39 86l11 21 q0 3 1 5l16 28q1 3 47 92l9.5 19.5t13.5 25.5q0 1 2.5 5l4.5 7l5.5 10.5l9 17l9.5 18.5q3 7 29 51q3 3 7 5q17 12 26 8q6 0 16 -3q2 2 3 0q8 -2 20 -11q5 -1 12 -9v-3q1 -1 3.5 -2.5t3.5 -2.5q2 -3 6 -8.5t5 -7.5l13 -37q1 0 2 1q3 -3 8 -3q-2 1 -6 -3t-4 -3h1q3 7 12 7h7 q4 1 7 1q2 0 3 -1l4 2q4 1 7 2q4 0 7 1q14 0 23 1q8 2 13 3q49 5 56 5q3 1 10.5 1.5t11.5 0.5l38 1l4 -2h9l4 2q1 1 2 1q2 1 3 1q4 -1 17 -1q6 2 10 3q3 -1 11 -1l2 1q6 1 32 1q15 0 23 -4q2 -4 12 -5q3 -1 13 -6zM287 467q-8 0 -35 -64q-2 -6 -16 -36q-24 -53 -39 -92 q-7 -23 -10 -29q47 11 75 17q9 12 31 27v41q1 28 1 43q1 5 1 19t-1 24q2 18 2 31q0 1 -1.5 6t-2.5 8z" />
<glyph unicode="&#xc7;" horiz-adv-x="377" d="M448 474l5 -35l-10 6v-17h-3l1 -8l-11 12v-6l-18 11q-1 -1 -4 -1l-2 -1h-4l-10 -2h-7l-5 5q-2 2 -8 10l-24 4l-17 -24l-15 -17l-4 -9l-21 -13l-8 -14l-10 -10l-42 -55l-14 -25l-30 -45l-8 -23l-17 -35l-11 -24l-3 -22l-6 -19v-29l2 -15l12 -20l20 -11l48 -11l46 4l11 -1 l7 2l9 -4l1 -11l-2 -8v-8h-2l-10 -5l-29 -9h-3l-15 -4l-1 -2l-16 -2l-38 -3l-4 -12v-7l31 -11l12 -6l13 -15l10 -25l-2 -8h-8l-6 -9l-18 -10l-29 -15l-82 -32l-12 -1l-7 3h-7l-3 4h-5l-3 3l8 5l92 46l16 13h-5l-23 -5l-16 -1v3l-5 5l-7 1l-1 2l-10 6l-2 22l21 38l2 15l-17 5 l-21 10l-41 33l-17 22l-17 38l-1 13l-4 16v34l9 46l6 11l2 10l5 16l26 48l5 10l4 5q4 4 5 6q10 21 35 52l20 24l-1 2l34 40l6 6l1 4l28 34l13 9l31 35l5 1l3 4l16 11l7 10l6 1l1 -2l4 2l24 11l51 8h10l24 -12l6 -4q0 -3 6 -6l10 -5l8 -4l12 -17l12 -25l-3 -1z" />
<glyph unicode="&#xc8;" horiz-adv-x="528" d="M552 528q-1 -1 -3 -5q-34 -9 -50 -10q-1 -1 -3.5 -1.5t-3.5 -0.5q-10 0 -17 -1q-1 -1 -2 -1q-2 -1 -3 -1q-1 1 -4 1l-10 -6q0 -1 -2 -2q0 -1 -1 -2q-2 -1 -6 -1.5t-6 -0.5q-3 0 -5 1q0 -2 -19 -6l-14 -4h-5l-4 -2q-1 1 -4 1q-1 -1 -2 -1q-2 -1 -3 -1q-5 -1 -14 -1t-13 -1 h-4q-2 0 -7 -2l-5 -2q-5 -1 -17 -1q-9 -4 -22 -5q-1 -2 -5 -6q-8 -4 -46 -32q-5 -5 -21 -17q-8 -6 -12 -11q-1 -3 -6 -8q-7 -15 -15 -38q0 -1 -2.5 -10.5t-4.5 -14.5q0 -1 -3 -9t-3 -10q0 -3 2 -5h3l29 2q6 1 20 1.5t21 0.5q19 -1 44 0q5 -1 19 -1q3 -1 15 -1l4 -2 q10 2 16 3.5t8.5 2t1.5 0.5q13 0 17 -4v-2q1 -1 1 -19l-11 -7l-5 -3h-3l-3 -3l-14 -3q-3 -3 -14 -7l-14 -6q-3 -3 -44 -12q-2 0 -12 -1.5t-19 -3.5q-6 -7 -28 -25q-3 -4 -8 -5q-11 -17 -21 -24q-5 -11 -14 -22q-11 -3 -32 -6q-1 -32 7 -51q12 -20 44 -22v-5l1 -7l5 -3l8 -1 h13l31 4l11 3l28 4l18 5l16 3l21 6l1 -3q1 -1 1 -3q-1 -3 -1 -6l1 -1q-1 -3 1 -7q-4 -4 -5 -6l-1 2q0 -4 1 -6l-5 -10q-2 -4 -3 -8q-1 0 -2 -1v-2q-3 -9 -5 -13q0 -1 -2 -3q-3 -4 -5 -6v-4q-16 -8 -25 -13l-12 -4q-2 0 -3 -1q-28 -5 -34 -7q-9 0 -21 -1h-13q-2 -1 -22 2 q-19 3 -22 3q-5 0 -32 13q-1 0 -12 7l-5 6l-20 21q0 1 -2.5 5t-4.5 6l-1 1q-2 0 -2 1q-4 11 -12 30q-4 22 -10 41q0 7 -1 11q1 3 1 10q0 2 -1 3q0 11 -1 17q2 14 2 24q2 14 2 24l8 48q0 2 2.5 11t2.5 10q0 2 1 7.5t1 6.5q4 10 5 17q1 4 3 17q6 16 16 52q1 0 1 1q3 9 6 21 l-3 6q-5 10 -10 30q3 2 8 7v3l5 5q-1 1 -1 4q2 9 17 28h2l7 7q5 5 21 19q4 4 6 7q-3 2 -3 15q15 10 21.5 11.5t12.5 0.5q5 1 12 1q1 0 4 -1t5 -1h3q8 -1 10 -1q17 1 57 3h35q3 -1 9.5 -1.5t9.5 -0.5h68q5 -1 16 -1l57 -1q10 0 26 -4q20 -5 22 -8q7 -3 14 -7q2 0 3 -1v-6z M439 610q-1 -8 -2 -8l-2 -2h-3l-3 -3h-2q-4 -3 -13 -3q-12 0 -27 7q-8 3 -24 10q-28 13 -49 29q-40 30 -45 33l-22 18q-8 10 -16 18q-1 1 -9 17q-7 11 -7 22l1 1q1 16 10 16q8 0 13.5 0.5t7.5 0.5t0 1q5 0 9 -1l6 -2q4 -2 7 -3l1 -1q2 0 2 -1l5 -2q3 -2 5 -5l78 -68 q1 -1 17 -15.5t24 -22.5q38 -35 38 -36z" />
<glyph unicode="&#xc9;" horiz-adv-x="528" d="M503 854h4l5 -3l1 -4l-4 -1l-3 -8l1 -3l-5 -2l-8 -5v-3l3 -4l-4 -4l2 -8l-4 -3v-3l12 2v-1l-14 -11l-3 -10l-7 -11l-6 -7l-12 -11l-11 -8l-40 -24l-36 -16l-7 -1h-17l-12 4h-8l-6 3v4l-4 4l-5 14l1 5l-2 6l2 4l6 6v2l30 27l14 10l41 30l30 18l29 7zM552 528q-1 -1 -3 -5 q-34 -9 -50 -10q-1 -1 -3.5 -1.5t-3.5 -0.5q-10 0 -17 -1q-1 -1 -2 -1q-2 -1 -3 -1q-1 1 -4 1l-10 -6q0 -1 -2 -2q0 -1 -1 -2q-2 -1 -6 -1.5t-6 -0.5q-3 0 -5 1q0 -2 -19 -6l-14 -4h-5l-4 -2q-1 1 -4 1q-1 -1 -2 -1q-2 -1 -3 -1q-5 -1 -14 -1t-13 -1h-4q-2 0 -7 -2l-5 -2 q-5 -1 -17 -1q-9 -4 -22 -5q-1 -2 -5 -6q-8 -4 -46 -32q-5 -5 -21 -17q-8 -6 -12 -11q-1 -3 -6 -8q-7 -15 -15 -38q0 -1 -2.5 -10.5t-4.5 -14.5q0 -1 -3 -9t-3 -10q0 -3 2 -5h3l29 2q6 1 20 1.5t21 0.5q19 -1 44 0q5 -1 19 -1q3 -1 15 -1l4 -2q10 2 16 3.5t8.5 2t1.5 0.5 q13 0 17 -4v-2q1 -1 1 -19l-11 -7l-5 -3h-3l-3 -3l-14 -3q-3 -3 -14 -7l-14 -6q-3 -3 -44 -12q-2 0 -12 -1.5t-19 -3.5q-6 -7 -28 -25q-3 -4 -8 -5q-11 -17 -21 -24q-5 -11 -14 -22q-11 -3 -32 -6q-1 -32 7 -51q12 -20 44 -22v-5l1 -7l5 -3l8 -1h13l31 4l11 3l28 4l18 5 l16 3l21 6l1 -3q1 -1 1 -3q-1 -3 -1 -6l1 -1q-1 -3 1 -7q-4 -4 -5 -6l-1 2q0 -4 1 -6l-5 -10q-2 -4 -3 -8q-1 0 -2 -1v-2q-3 -9 -5 -13q0 -1 -2 -3q-3 -4 -5 -6v-4q-16 -8 -25 -13l-12 -4q-2 0 -3 -1q-28 -5 -34 -7q-9 0 -21 -1h-13q-2 -1 -22 2q-19 3 -22 3q-5 0 -32 13 q-1 0 -12 7l-5 6l-20 21q0 1 -2.5 5t-4.5 6l-1 1q-2 0 -2 1q-4 11 -12 30q-4 22 -10 41q0 7 -1 11q1 3 1 10q0 2 -1 3q0 11 -1 17q2 14 2 24q2 14 2 24l8 48q0 2 2.5 11t2.5 10q0 2 1 7.5t1 6.5q4 10 5 17q1 4 3 17q6 16 16 52q1 0 1 1q3 9 6 21l-3 6q-5 10 -10 30q3 2 8 7 v3l5 5q-1 1 -1 4q2 9 17 28h2l7 7q5 5 21 19q4 4 6 7q-3 2 -3 15q15 10 21.5 11.5t12.5 0.5q5 1 12 1q1 0 4 -1t5 -1h3q8 -1 10 -1q17 1 57 3h35q3 -1 9.5 -1.5t9.5 -0.5h68q5 -1 16 -1l57 -1q10 0 26 -4q20 -5 22 -8q7 -3 14 -7q2 0 3 -1v-6z" />
<glyph unicode="&#xca;" horiz-adv-x="528" d="M508 716q0 -5 -6 -20q-6 -3 -10 -3q-12 0 -16 3q-9 9 -43 62l-22 33q-6 8 -13 9q-1 -1 -8 -3q-5 -5 -33 -37l-9 -12q-1 -2 -39 -46q-13 -10 -16 -23q-14 -8 -20 -8q-11 2 -14 6q-8 4 -16 25q0 1 1 2q0 9 19 36l24 31q18 23 54 64q5 4 17 16q8 6 13 11q2 2 9 5q17 0 24 -7 q2 -1 6 -3.5t6 -3.5q4 -3 11.5 -9.5t11.5 -9.5q3 -6 12 -16l33 -66q8 -15 16 -24v-1q2 -3 8 -11zM552 528q-1 -1 -3 -5q-34 -9 -50 -10q-1 -1 -3.5 -1.5t-3.5 -0.5q-10 0 -17 -1q-1 -1 -2 -1q-2 -1 -3 -1q-1 1 -4 1l-10 -6q0 -1 -2 -2q0 -1 -1 -2q-2 -1 -6 -1.5t-6 -0.5 q-3 0 -5 1q0 -2 -19 -6l-14 -4h-5l-4 -2q-1 1 -4 1q-1 -1 -2 -1q-2 -1 -3 -1q-5 -1 -14 -1t-13 -1h-4q-2 0 -7 -2l-5 -2q-5 -1 -17 -1q-9 -4 -22 -5q-1 -2 -5 -6q-8 -4 -46 -32q-5 -5 -21 -17q-8 -6 -12 -11q-1 -3 -6 -8q-7 -15 -15 -38q0 -1 -2.5 -10.5t-4.5 -14.5 q0 -1 -3 -9t-3 -10q0 -3 2 -5h3l29 2q6 1 20 1.5t21 0.5q19 -1 44 0q5 -1 19 -1q3 -1 15 -1l4 -2q10 2 16 3.5t8.5 2t1.5 0.5q13 0 17 -4v-2q1 -1 1 -19l-11 -7l-5 -3h-3l-3 -3l-14 -3q-3 -3 -14 -7l-14 -6q-3 -3 -44 -12q-2 0 -12 -1.5t-19 -3.5q-6 -7 -28 -25q-3 -4 -8 -5 q-11 -17 -21 -24q-5 -11 -14 -22q-11 -3 -32 -6q-1 -32 7 -51q12 -20 44 -22v-5l1 -7l5 -3l8 -1h13l31 4l11 3l28 4l18 5l16 3l21 6l1 -3q1 -1 1 -3q-1 -3 -1 -6l1 -1q-1 -3 1 -7q-4 -4 -5 -6l-1 2q0 -4 1 -6l-5 -10q-2 -4 -3 -8q-1 0 -2 -1v-2q-3 -9 -5 -13q0 -1 -2 -3 q-3 -4 -5 -6v-4q-16 -8 -25 -13l-12 -4q-2 0 -3 -1q-28 -5 -34 -7q-9 0 -21 -1h-13q-2 -1 -22 2q-19 3 -22 3q-5 0 -32 13q-1 0 -12 7l-5 6l-20 21q0 1 -2.5 5t-4.5 6l-1 1q-2 0 -2 1q-4 11 -12 30q-4 22 -10 41q0 7 -1 11q1 3 1 10q0 2 -1 3q0 11 -1 17q2 14 2 24 q2 14 2 24l8 48q0 2 2.5 11t2.5 10q0 2 1 7.5t1 6.5q4 10 5 17q1 4 3 17q6 16 16 52q1 0 1 1q3 9 6 21l-3 6q-5 10 -10 30q3 2 8 7v3l5 5q-1 1 -1 4q2 9 17 28h2l7 7q5 5 21 19q4 4 6 7q-3 2 -3 15q15 10 21.5 11.5t12.5 0.5q5 1 12 1q1 0 4 -1t5 -1h3q8 -1 10 -1q17 1 57 3 h35q3 -1 9.5 -1.5t9.5 -0.5h68q5 -1 16 -1l57 -1q10 0 26 -4q20 -5 22 -8q7 -3 14 -7q2 0 3 -1v-6z" />
<glyph unicode="&#xcb;" horiz-adv-x="528" d="M232 761h2l8 -3l9 -4l8 1l-1 -7l10 -4l14 -13l6 -7l14 -33l1 -7v-12l-7 -12l-7 -8l-1 -2l-15 -2l-17 -2l-18 7l-8 4l-2 2l-24 17l-11 10l-2 5v13l-2 11l2 13l8 16l18 14zM387 759l22 -7l9 2l12 -15l14 -12l9 -24v-27l-13 -14l-5 -3l-10 -3l-26 4l-20 10l-21 19l-1 15 l-4 6l11 34l10 7l10 3zM552 528q-1 -1 -3 -5q-34 -9 -50 -10q-1 -1 -3.5 -1.5t-3.5 -0.5q-10 0 -17 -1q-1 -1 -2 -1q-2 -1 -3 -1q-1 1 -4 1l-10 -6q0 -1 -2 -2q0 -1 -1 -2q-2 -1 -6 -1.5t-6 -0.5q-3 0 -5 1q0 -2 -19 -6l-14 -4h-5l-4 -2q-1 1 -4 1q-1 -1 -2 -1q-2 -1 -3 -1 q-5 -1 -14 -1t-13 -1h-4q-2 0 -7 -2l-5 -2q-5 -1 -17 -1q-9 -4 -22 -5q-1 -2 -5 -6q-8 -4 -46 -32q-5 -5 -21 -17q-8 -6 -12 -11q-1 -3 -6 -8q-7 -15 -15 -38q0 -1 -2.5 -10.5t-4.5 -14.5q0 -1 -3 -9t-3 -10q0 -3 2 -5h3l29 2q6 1 20 1.5t21 0.5q19 -1 44 0q5 -1 19 -1 q3 -1 15 -1l4 -2q10 2 16 3.5t8.5 2t1.5 0.5q13 0 17 -4v-2q1 -1 1 -19l-11 -7l-5 -3h-3l-3 -3l-14 -3q-3 -3 -14 -7l-14 -6q-3 -3 -44 -12q-2 0 -12 -1.5t-19 -3.5q-6 -7 -28 -25q-3 -4 -8 -5q-11 -17 -21 -24q-5 -11 -14 -22q-11 -3 -32 -6q-1 -32 7 -51q12 -20 44 -22v-5 l1 -7l5 -3l8 -1h13l31 4l11 3l28 4l18 5l16 3l21 6l1 -3q1 -1 1 -3q-1 -3 -1 -6l1 -1q-1 -3 1 -7q-4 -4 -5 -6l-1 2q0 -4 1 -6l-5 -10q-2 -4 -3 -8q-1 0 -2 -1v-2q-3 -9 -5 -13q0 -1 -2 -3q-3 -4 -5 -6v-4q-16 -8 -25 -13l-12 -4q-2 0 -3 -1q-28 -5 -34 -7q-9 0 -21 -1h-13 q-2 -1 -22 2q-19 3 -22 3q-5 0 -32 13q-1 0 -12 7l-5 6l-20 21q0 1 -2.5 5t-4.5 6l-1 1q-2 0 -2 1q-4 11 -12 30q-4 22 -10 41q0 7 -1 11q1 3 1 10q0 2 -1 3q0 11 -1 17q2 14 2 24q2 14 2 24l8 48q0 2 2.5 11t2.5 10q0 2 1 7.5t1 6.5q4 10 5 17q1 4 3 17q6 16 16 52q1 0 1 1 q3 9 6 21l-3 6q-5 10 -10 30q3 2 8 7v3l5 5q-1 1 -1 4q2 9 17 28h2l7 7q5 5 21 19q4 4 6 7q-3 2 -3 15q15 10 21.5 11.5t12.5 0.5q5 1 12 1q1 0 4 -1t5 -1h3q8 -1 10 -1q17 1 57 3h35q3 -1 9.5 -1.5t9.5 -0.5h68q5 -1 16 -1l57 -1q10 0 26 -4q20 -5 22 -8q7 -3 14 -7 q2 0 3 -1v-6z" />
<glyph unicode="&#xcc;" horiz-adv-x="246" d="M228 561h7l14 -6l8 -11l3 -24l-3 -50l-13 -29l-14 -30l-36 -103l-33 -90l-8 -30l-8 -16l-3 -17l-7 -15l-4 -17l-10 -60l-7 -30l-6 -33l-14 -36l-13 -14l-16 -9l-11 6l-3 46l2 6l-2 8v29l2 23l-2 5l-1 49l1 36l6 28l7 39l7 22l13 61l6 12l11 37l18 53l1 14l9 14l9 21 l13 22l1 7l21 36l5 3l9 17l20 18zM354 570l-2 -8l-2 -2h-3l-3 -3h-2q-4 -3 -13 -3q-12 0 -27 7q-8 3 -24 10q-28 13 -49 29l-45 33l-22 18q-8 10 -16 18q-1 1 -9 17q-7 11 -7 22l1 1q1 16 10 16q8 0 13.5 0.5t7.5 0.5t0 1q5 0 9 -1l6 -2q4 -2 7 -3q0 -1 1 -1t2 -1l5 -2 q3 -2 5 -5l78 -68q1 -1 17 -15.5t24 -22.5q38 -35 38 -36z" />
<glyph unicode="&#xcd;" horiz-adv-x="246" d="M389 854h4l5 -3l1 -4l-4 -1l-3 -8l1 -3l-5 -2l-8 -5v-3l3 -4l-4 -4l2 -8l-4 -3v-3l12 2v-1l-14 -11l-3 -10l-7 -11l-6 -7l-12 -11l-11 -8l-40 -24l-36 -16l-7 -1h-17l-12 4h-8l-6 3v4l-4 4l-5 14l1 5l-2 6l2 4l6 6v2l30 27l14 10l41 30l30 18l29 7zM228 561h7l14 -6 l8 -11l3 -24l-3 -50l-13 -29l-14 -30l-36 -103l-33 -90l-8 -30l-8 -16l-3 -17l-7 -15l-4 -17l-10 -60l-7 -30l-6 -33l-14 -36l-13 -14l-16 -9l-11 6l-3 46l2 6l-2 8v29l2 23l-2 5l-1 49l1 36l6 28l7 39l7 22l13 61l6 12l11 37l18 53l1 14l9 14l9 21l13 22l1 7l21 36l5 3 l9 17l20 18z" />
<glyph unicode="&#xce;" horiz-adv-x="246" d="M228 561h7l14 -6l8 -11l3 -24l-3 -50l-13 -29l-14 -30l-36 -103l-33 -90l-8 -30l-8 -16l-3 -17l-7 -15l-4 -17l-10 -60l-7 -30l-6 -33l-14 -36l-13 -14l-16 -9l-11 6l-3 46l2 6l-2 8v29l2 23l-2 5l-1 49l1 36l6 28l7 39l7 22l13 61l6 12l11 37l18 53l1 14l9 14l9 21 l13 22l1 7l21 36l5 3l9 17l20 18zM395 716q0 -5 -6 -20q-6 -3 -10 -3q-11 0 -16 3q-9 9 -43 62l-22 33q-6 8 -13 9q-1 -1 -8 -3q-5 -5 -33 -37l-9 -12q-1 -2 -39 -46q-13 -10 -16 -23q-14 -8 -20 -8q-11 2 -14 6q-8 4 -16 25q0 1 1 2q0 9 19 36l24 31q18 23 54 64q5 4 17 16 q8 6 13 11q2 2 9 5q17 0 24 -7q2 -1 6 -3.5t6 -3.5q4 -3 11.5 -9.5t11.5 -9.5q3 -6 12 -16l33 -66q8 -15 16 -24v-1q2 -3 8 -11z" />
<glyph unicode="&#xcf;" horiz-adv-x="246" d="M174 839h2l8 -3l9 -4l8 1l-1 -7l10 -4l14 -13l6 -7l14 -33l1 -7v-12l-7 -12l-7 -8l-1 -2l-15 -2l-17 -2l-18 7l-8 4l-2 2l-24 17l-11 10l-2 5v13l-2 11l2 13l8 16l18 14zM329 837l22 -7l9 2l12 -15l14 -12l9 -24v-27l-13 -14l-5 -3l-10 -3l-26 4l-20 10l-21 19l-1 15 l-4 6l11 34l10 7l10 3zM228 561h7l14 -6l8 -11l3 -24l-3 -50l-13 -29l-14 -30l-36 -103l-33 -90l-8 -30l-8 -16l-3 -17l-7 -15l-4 -17l-10 -60l-7 -30l-6 -33l-14 -36l-13 -14l-16 -9l-11 6l-3 46l2 6l-2 8v29l2 23l-2 5l-1 49l1 36l6 28l7 39l7 22l13 61l6 12l11 37l18 53 l1 14l9 14l9 21l13 22l1 7l21 36l5 3l9 17l20 18z" />
<glyph unicode="&#xd0;" horiz-adv-x="479" d="M467 323q0 -25 -8 -43l2 -2q0 -14 -12 -42t-39 -58q-12 -21 -30.5 -39t-46 -40.5t-39.5 -33.5q-4 -1 -19.5 -12.5t-38.5 -23.5l-3 -3q-17 -5 -53 -26l-16 -2q-16 -3 -16 -7l-10 -2q-10 -3 -22 -6l-4 3q-5 4 -13 5q-1 -1 -3 -1h-5q-1 -1 -5 -1q0 1 -1 1t-2 1q-2 -2 -4 -2 t-7 5v-2h-1q-2 0 -2 -1q-6 4 -7 9l-1 -1q1 0 1 -1h-3q-4 4 -5 4t-5 -2l-2 -2h-11l-1 2q-1 -1 -4 -1q-4 3 -4 12q1 1 3 5l1 7q1 2 7 15.5t10 21.5v48l1 13l1 16q2 12 5 32.5l5 33.5l-21 -2l-34 4l-19 -4l-11 7v5l-8 9l-4 3l1 17l-2 7l10 18l4 6l19 6l31 3l45 6q0 6 2 18l3 3 l5 27q-3 -6 0 9l14 58l2 8q0 4 3.5 19t3.5 24q0 19 3.5 30.5t7.5 14.5t10 5t7 3q0 3 18.5 17t31.5 14q8 0 12 -1q24 5 31 8q3 0 5 -1l4 4l49 -16q5 2 21 -4.5t69 -38.5q2 -2 11 -7.5t18.5 -15.5t20.5 -28q1 -5 1.5 -5.5t1.5 -1t3 -2t8 -11.5t15 -28q1 -3 5 -13.5t7 -24.5 t3 -29zM385 292q1 6 1 16q0 14 -3 23q-12 35 -35 70l-19 19q-18 14 -44.5 21.5t-63.5 15.5l-19 -11q-19 -10 -19 -17q0 -8 1 -13q-1 -3 -8 -44v-10q-3 -5 -11 -65h29h78l18 -2l7 -4v-5l-14 -4l-1 -5l-5 -1l-14 -8l-2 -7l-11 -5l-13 -11l-26 -8l-15 -5l-3 -4l-15 5l-2 -4 l-25 -12q-1 -6 -4.5 -20t-6.5 -34t-4 -48l-2 -6v-12q0 -1 -1.5 -6t-1.5 -6q1 -9 3 -24q43 16 51 20t80 50q60 45 87.5 80.5t32.5 80.5z" />
<glyph unicode="&#xd1;" horiz-adv-x="667" d="M609 655q0 -4 -1 -9l-2 -8l-8 -31v-3q-1 -1 -1 -2q-1 -2 -1 -3q2 -4 3 -7l-2 -26q-1 -4 -2 -18t-2 -22q-1 -24 -6 -76q-1 -8 -5 -32t-6 -39q-1 -2 -2 -9t-2 -12q1 -2 3 -8q-1 -5 -1.5 -15.5t-0.5 -15.5q-7 -36 -8 -52v-14q-9 -57 -10 -70q-1 -1 -7 -27q-6 -24 -6 -26 q0 -4 -1.5 -14t-1.5 -12q-2 -22 -13 -45q-9 -7 -13.5 -11t-3.5 -4l-6 -4q-4 -4 -13 -4q-4 -2 -10 -4q-6 -3 -17 -5l-1 -1q-1 -1 -5 -3q-7 -10 -34 -29q-5 -1 -15 -1q-4 2 -17 9q-1 1 -10 7q-1 1 -3 5q-4 6 -8 11l-49 63q-23 31 -53 88q-1 2 -3.5 7.5t-3.5 8.5l-6 9l-30 66 q-4 10 -17 37q-5 12 -17 15q-6 -19 -15 -60q-5 -15 -18 -64q-5 -15 -8 -28v-6q-6 -14 -13 -54q0 -1 -1.5 -9t-3.5 -15q-8 -20 -9 -32q0 -2 -1 -3q0 -1 -1.5 -6t-2.5 -8q-1 -1 -5 -3l-12 -42q-4 -10 -16 -26l-14 -9q-1 2 -3 0q-1 -10 -17 -10q-1 0 -3 2l-4 4q-11 5 -11 30 q0 -1 0.5 3t0.5 10v21q0 9 5 27q4 12 8 27q4 23 12 58l7 31l46 225l23 100q1 1 4 8.5t5 14.5q0 4 2 6q6 8 16 8h6q3 1 6 1q15 -1 24 -7q1 -1 4.5 -5.5t6.5 -7.5l21 -26q1 -4 3 -8l5 -10l5 -10q6 -10 9 -13q0 -2 7 -22l31 -63q1 -3 23 -49l32 -80q2 -3 6.5 -13t7.5 -16 q2 -5 17 -39l4 -8l8 -12q2 -5 8 -15q4 4 12 6l20 10l8 7q6 27 7 31q0 8 9 36q10 27 10 35q0 5 3 24t3 25q3 12 6 30q1 2 3 10.5t4 14.5l14 80q1 4 21 110q9 27 18 63q8 19 10 25q0 5 6 21t8 16t13.5 3.5t13.5 2.5q3 3 12 5q10 0 12 -16zM495 817q-2 -5 -6 -11l1 -1 q-5 -11 -19 -27q-1 -3 -6 -13l-2 -1v-3q-3 -6 -9 -16v-3q0 -2 1 -3q-6 -10 -10 -16q1 1 1 0q-1 0 -1 -2q-5 -3 -13 -10l-1 -1q-7 -7 -11 -9q-14 -6 -40 -6q-34 3 -71 23q-2 2 -14 9q-2 2 -12 8q-2 0 -10 4l-8 4l-7 -4q-6 -4 -7 -19q-6 -16 -22 -16q-5 0 -8 1h-4 q-1 1 -3.5 1.5t-3.5 0.5h-4q-5 1 -10 10q-2 2 -6 13l1 1q1 1 1 2q-1 1 -1 4q0 7 4 22q15 34 25 42q21 19 35 17q3 1 10 1q2 0 9.5 -1.5t13.5 -2.5q2 -1 5 -2t4 -2l28 -18q13 -13 21 -22q1 -1 3 -5v-1q3 -9 9 -17l1 -1l6 -2h7q12 2 24 11l39 46q18 19 24 19l21 1q2 0 10 -2 q1 -1 5 -3z" />
<glyph unicode="&#xd2;" horiz-adv-x="586" d="M449 570q-1 -8 -2 -8l-2 -2h-3l-3 -3h-2q-5 -3 -13 -3q-12 0 -27 7q-8 3 -24 10q-28 13 -49 29q-40 30 -45 33l-22 18q-8 10 -16 18q-1 1 -9 17q-7 11 -7 22l1 1q1 16 10 16q8 0 13.5 0.5t7.5 0.5t0 1q5 0 9 -1l6 -2q4 -2 7 -3l1 -1q2 0 2 -1l5 -2q3 -2 5 -5l78 -68 q1 -1 17 -15.5t24 -22.5q38 -35 38 -36zM539 234q0 -5 -1 -9l-3 -18v-3q1 0 2 -1q-1 -11 -14 -44q-8 -25 -13 -33q-11 -24 -21 -37q-6 -9 -8 -13q-7 -7 -11 -12v-4q-1 -1 -3 -5q-2 -2 -5.5 -4t-8.5 -5.5l-9 -6.5q-3 -4 -16 -17l-4 -4q-1 0 -8 -4t-11 -7l-14 -7q-6 -4 -11 -7 l-26 -9q-1 -1 -5 -3q-13 -5 -37 -10l-20 -5h-9q-1 0 -6 -1.5t-7 -1.5q-32 0 -67 9q-39 11 -81 40q-18 13 -38 36q-3 3 -18 27q0 1 -13 28q-5 19 -12 57q1 -3 1 1t0.5 15.5t0.5 28.5q0 2 1.5 9.5t1.5 9.5l9 36l13 33l23 45l34 55l41 54q1 1 5.5 4.5t7.5 6.5l8 10q4 2 11 9 q23 22 51 22l6 5l5 2l6 3q6 3 7 3q3 1 12 1q8 5 36 13l2 2h9q1 1 2 1q2 1 3 1q4 0 16 -3h10q2 -1 17 -10q8 -8 13 -12q2 -1 8 -3q0 -2 2 -4q1 -4 8 -13q2 -6 4 -9q8 -7 22 -16q6 -8 12 -14q1 -1 5 -3l15 -15q3 -5 13 -20l7 -7q4 -10 7 -15v-4l2 -2q2 0 2 -1q1 -2 3.5 -8 t3.5 -8q4 -6 7 -10l3 -10q1 -2 1.5 -7t0.5 -8q1 0 1 -1l2 -1q2 -8 3 -11q5 -35 8 -63v-13q0 -1 3 -3zM449 249q0 42 -10 66q-4 13 -12 34q-6 10 -9 16q-6 7 -22 23l-24 24l-35 21q-11 -8 -25 -8h-30q-6 0 -49 -41q-13 -7 -46 -57q-5 -9 -9 -21q-1 -1 -8 -13q-4 -12 -15 -31 q-13 -25 -27 -68q-2 -34 -2 -35q0 -24 4 -40q3 -6 6 -15q2 -4 15 -24q5 -7 34 -24q19 -11 72 -11l20 2q17 1 24 3q5 1 34 13l17 10q17 7 34 25l24 36l18 34q12 28 14 33v6q7 22 7 42z" />
<glyph unicode="&#xd3;" horiz-adv-x="586" d="M432 746h4l5 -3l1 -4l-4 -1l-3 -8l1 -3l-5 -2l-8 -5v-3l3 -4l-4 -4l2 -8l-4 -3v-3l12 2v-1l-14 -11l-3 -10l-7 -11l-6 -7l-12 -11l-11 -8l-40 -24l-36 -16l-7 -1h-17l-12 4h-8l-6 3v4l-4 4l-5 14l1 5l-2 6l2 4l6 6v2l30 27l14 10l41 30l30 18l29 7zM539 234q0 -5 -1 -9 l-3 -18v-3q1 0 2 -1q-1 -11 -14 -44q-8 -25 -13 -33q-11 -24 -21 -37q-6 -9 -8 -13q-7 -7 -11 -12v-4q-1 -1 -3 -5q-2 -2 -5.5 -4t-8.5 -5.5l-9 -6.5q-3 -4 -16 -17l-4 -4q-1 0 -8 -4t-11 -7l-14 -7q-6 -4 -11 -7l-26 -9q-1 -1 -5 -3q-13 -5 -37 -10l-20 -5h-9q-1 0 -6 -1.5 t-7 -1.5q-32 0 -67 9q-39 11 -81 40q-18 13 -38 36q-3 3 -18 27q0 1 -13 28q-5 19 -12 57q1 -3 1 1t0.5 15.5t0.5 28.5q0 2 1.5 9.5t1.5 9.5l9 36l13 33l23 45l34 55l41 54q1 1 5.5 4.5t7.5 6.5l8 10q4 2 11 9q23 22 51 22l6 5l5 2l6 3q6 3 7 3q3 1 12 1q8 5 36 13l2 2h9 q1 1 2 1q2 1 3 1q4 0 16 -3h10q2 -1 17 -10q8 -8 13 -12q2 -1 8 -3q0 -2 2 -4q1 -4 8 -13q2 -6 4 -9q8 -7 22 -16q6 -8 12 -14q1 -1 5 -3l15 -15q3 -5 13 -20l7 -7q4 -10 7 -15v-4l2 -2q2 0 2 -1q1 -2 3.5 -8t3.5 -8q4 -6 7 -10l3 -10q1 -2 1.5 -7t0.5 -8q1 0 1 -1l2 -1 q2 -8 3 -11q5 -35 8 -63v-13q0 -1 3 -3zM449 249q0 42 -10 66q-4 13 -12 34q-6 10 -9 16q-6 7 -22 23l-24 24l-35 21q-11 -8 -25 -8h-30q-6 0 -49 -41q-13 -7 -46 -57q-5 -9 -9 -21q-1 -1 -8 -13q-4 -12 -15 -31q-13 -25 -27 -68q-2 -34 -2 -35q0 -24 4 -40q3 -6 6 -15 q2 -4 15 -24q5 -7 34 -24q19 -11 72 -11l20 2q17 1 24 3q5 1 34 13l17 10q17 7 34 25l24 36l18 34q12 28 14 33v6q7 22 7 42z" />
<glyph unicode="&#xd4;" horiz-adv-x="586" d="M539 234q0 -5 -1 -9l-3 -18v-3q1 0 2 -1q-1 -11 -14 -44q-8 -25 -13 -33q-11 -24 -21 -37q-6 -9 -8 -13q-7 -7 -11 -12v-4q-1 -1 -3 -5q-2 -2 -5.5 -4t-8.5 -5.5l-9 -6.5q-3 -4 -16 -17l-4 -4q-1 0 -8 -4t-11 -7l-14 -7q-6 -4 -11 -7l-26 -9q-1 -1 -5 -3q-13 -5 -37 -10 l-20 -5h-9q-1 0 -6 -1.5t-7 -1.5q-32 0 -67 9q-39 11 -81 40q-18 13 -38 36q-3 3 -18 27q0 1 -13 28q-5 19 -12 57q1 -3 1 1t0.5 15.5t0.5 28.5q0 2 1.5 9.5t1.5 9.5l9 36l13 33l23 45l34 55l41 54q1 1 5.5 4.5t7.5 6.5l8 10q4 2 11 9q23 22 51 22l6 5l5 2l6 3q6 3 7 3 q3 1 12 1q8 5 36 13l2 2h9q1 1 2 1q2 1 3 1q4 0 16 -3h10q2 -1 17 -10q8 -8 13 -12q2 -1 8 -3q0 -2 2 -4q1 -4 8 -13q2 -6 4 -9q8 -7 22 -16q6 -8 12 -14q1 -1 5 -3l15 -15q3 -5 13 -20l7 -7q4 -10 7 -15v-4l2 -2q2 0 2 -1q1 -2 3.5 -8t3.5 -8q4 -6 7 -10l3 -10q1 -2 1.5 -7 t0.5 -8q1 0 1 -1l2 -1q2 -8 3 -11q5 -35 8 -63v-13q0 -1 3 -3zM449 249q0 42 -10 66q-4 13 -12 34q-6 10 -9 16q-6 7 -22 23l-24 24l-35 21q-11 -8 -25 -8h-30q-6 0 -49 -41q-13 -7 -46 -57q-5 -9 -9 -21q-1 -1 -8 -13q-4 -12 -15 -31q-13 -25 -27 -68q-2 -34 -2 -35 q0 -24 4 -40q3 -6 6 -15q2 -4 15 -24q5 -7 34 -24q19 -11 72 -11l20 2q17 1 24 3q5 1 34 13l17 10q17 7 34 25l24 36l18 34q12 28 14 33v6q7 22 7 42zM481 639q0 -5 -6 -20q-6 -3 -10 -3q-11 0 -16 3q-9 9 -43 62l-22 33q-6 8 -13 9q-1 -1 -8 -3q-5 -5 -33 -37q-3 -5 -9 -12 q-1 -2 -39 -46q-13 -10 -16 -23q-14 -8 -20 -8q-11 2 -14 6q-8 4 -16 25q0 1 1 2q0 9 19 36l24 31q18 23 54 64q5 4 17 16q8 6 13 11q2 2 9 5q17 0 24 -7q2 -1 6 -3.5t6 -3.5q4 -3 11.5 -9.5t11.5 -9.5q3 -6 12 -16l33 -66q8 -15 16 -24v-1q2 -3 8 -11z" />
<glyph unicode="&#xd5;" horiz-adv-x="586" d="M539 234q0 -5 -1 -9l-3 -18v-3q1 0 2 -1q-1 -11 -14 -44q-8 -25 -13 -33q-11 -24 -21 -37q-6 -9 -8 -13q-7 -7 -11 -12v-4q-1 -1 -3 -5q-2 -2 -5.5 -4t-8.5 -5.5l-9 -6.5q-3 -4 -16 -17l-4 -4q-1 0 -8 -4t-11 -7l-14 -7q-6 -4 -11 -7l-26 -9q-1 -1 -5 -3q-13 -5 -37 -10 l-20 -5h-9q-1 0 -6 -1.5t-7 -1.5q-32 0 -67 9q-39 11 -81 40q-18 13 -38 36q-3 3 -18 27q0 1 -13 28q-5 19 -12 57q1 -3 1 1t0.5 15.5t0.5 28.5q0 2 1.5 9.5t1.5 9.5l9 36l13 33l23 45l34 55l41 54q1 1 5.5 4.5t7.5 6.5l8 10q4 2 11 9q23 22 51 22l6 5l5 2l6 3q6 3 7 3 q3 1 12 1q8 5 36 13l2 2h9q1 1 2 1q2 1 3 1q4 0 16 -3h10q2 -1 17 -10q8 -8 13 -12q2 -1 8 -3q0 -2 2 -4q1 -4 8 -13q2 -6 4 -9q8 -7 22 -16q6 -8 12 -14q1 -1 5 -3l15 -15q3 -5 13 -20l7 -7q4 -10 7 -15v-4l2 -2q2 0 2 -1q1 -2 3.5 -8t3.5 -8q4 -6 7 -10l3 -10q1 -2 1.5 -7 t0.5 -8q1 0 1 -1l2 -1q2 -8 3 -11q5 -35 8 -63v-13q0 -1 3 -3zM449 249q0 42 -10 66q-4 13 -12 34q-6 10 -9 16q-6 7 -22 23l-24 24l-35 21q-11 -8 -25 -8h-30q-6 0 -49 -41q-13 -7 -46 -57q-5 -9 -9 -21q-1 -1 -8 -13q-4 -12 -15 -31q-13 -25 -27 -68q-2 -34 -2 -35 q0 -24 4 -40q3 -6 6 -15q2 -4 15 -24q5 -7 34 -24q19 -11 72 -11l20 2q17 1 24 3q5 1 34 13l17 10q17 7 34 25l24 36l18 34q12 28 14 33v6q7 22 7 42zM550 817q-2 -5 -6 -11l1 -1q-5 -11 -19 -27q-1 -3 -6 -13l-2 -1v-3q-2 -6 -9 -16v-3q0 -2 1 -3q-6 -10 -10 -16q1 1 1 0 q-1 0 -1 -2q-5 -3 -13 -10l-1 -1q-7 -7 -11 -9q-14 -6 -40 -6q-34 3 -71 23q-2 2 -14 9q-2 2 -12 8q-2 0 -10 4l-8 4l-6 -4q-7 -4 -8 -19q-6 -16 -22 -16q-5 0 -8 1h-4q-1 1 -3.5 1.5t-3.5 0.5h-4q-5 1 -10 10q-2 2 -6 13q1 0 1 1t1 2q-1 1 -1 4q0 7 4 22q15 34 25 42 q21 19 35 17q3 1 10 1q2 0 9.5 -1.5t13.5 -2.5q2 -1 5 -2t4 -2l28 -18q13 -13 21 -22q1 -1 3 -5v-1q4 -9 9 -17l1 -1l6 -2h7q12 2 24 11l39 46q18 19 24 19l21 1q2 0 10 -2q1 -1 5 -3z" />
<glyph unicode="&#xd6;" horiz-adv-x="586" d="M232 761h2l8 -3l9 -4l8 1l-1 -7l10 -4l14 -13l6 -7l14 -33l1 -7v-12l-7 -12l-7 -8l-1 -2l-15 -2l-17 -2l-18 7l-8 4l-2 2l-24 17l-11 10l-2 5v13l-2 11l2 13l8 16l18 14zM387 759l22 -7l9 2l12 -15l14 -12l9 -24v-27l-13 -14l-5 -3l-10 -3l-26 4l-20 10l-21 19l-1 15 l-4 6l11 34l10 7l10 3zM539 234q0 -5 -1 -9l-3 -18v-3q1 0 2 -1q-1 -11 -14 -44q-8 -25 -13 -33q-11 -24 -21 -37q-6 -9 -8 -13q-7 -7 -11 -12v-4q-1 -1 -3 -5q-2 -2 -5.5 -4t-8.5 -5.5l-9 -6.5q-3 -4 -16 -17l-4 -4q-1 0 -8 -4t-11 -7l-14 -7q-6 -4 -11 -7l-26 -9 q-1 -1 -5 -3q-13 -5 -37 -10l-20 -5h-9q-1 0 -6 -1.5t-7 -1.5q-32 0 -67 9q-39 11 -81 40q-18 13 -38 36q-3 3 -18 27q0 1 -13 28q-5 19 -12 57q1 -3 1 1t0.5 15.5t0.5 28.5q0 2 1.5 9.5t1.5 9.5l9 36l13 33l23 45l34 55l41 54q1 1 5.5 4.5t7.5 6.5l8 10q4 2 11 9 q23 22 51 22l6 5l5 2l6 3q6 3 7 3q3 1 12 1q8 5 36 13l2 2h9q1 1 2 1q2 1 3 1q4 0 16 -3h10q2 -1 17 -10q8 -8 13 -12q2 -1 8 -3q0 -2 2 -4q1 -4 8 -13q2 -6 4 -9q8 -7 22 -16q6 -8 12 -14q1 -1 5 -3l15 -15q3 -5 13 -20l7 -7q4 -10 7 -15v-4l2 -2q2 0 2 -1q1 -2 3.5 -8 t3.5 -8q4 -6 7 -10l3 -10q1 -2 1.5 -7t0.5 -8q1 0 1 -1l2 -1q2 -8 3 -11q5 -35 8 -63v-13q0 -1 3 -3zM449 249q0 42 -10 66q-4 13 -12 34q-6 10 -9 16q-6 7 -22 23l-24 24l-35 21q-11 -8 -25 -8h-30q-6 0 -49 -41q-13 -7 -46 -57q-5 -9 -9 -21q-1 -1 -8 -13q-4 -12 -15 -31 q-13 -25 -27 -68q-2 -34 -2 -35q0 -24 4 -40q3 -6 6 -15q2 -4 15 -24q5 -7 34 -24q19 -11 72 -11l20 2q17 1 24 3q5 1 34 13l17 10q17 7 34 25l24 36l18 34q12 28 14 33v6q7 22 7 42z" />
<glyph unicode="&#xd8;" horiz-adv-x="549" d="M472 588q12 -3 16 -16q1 -4 6 -19v-11q1 -10 -8 -35q-1 -6 -22 -33v-5q-1 -7 2 -19q-1 -6 -1 -19q5 -9 11 -9q4 -7 14 -21l12 -23l8 -8q1 -2 3 -11t4 -15q1 0 3 -2q6 -27 7 -31q1 -1 1 -3q1 -4 3.5 -17t3.5 -19q0 -3 2 -12l4 -18q0 -7 -1 -10q2 -3 0 -15q-1 -16 -4 -23 q0 -2 -1 -4t-1 -3q-1 -5 -3 -17q-4 -9 -9 -26l-7 -20q-5 -4 -10 -19q-5 -5 -9 -12v-4l-1 -2q-1 -1 -1 -2q-2 -1 -4 -3t-4 -3q-15 -19 -31 -33l-20 -15q-10 -9 -37 -23q-38 -33 -79 -33q-13 0 -19 1l-9 -4l-10 -1l-7 -3l-6 -1h-5l-6 -3l-20 2l-17 4l-11 4l-12 -24l-7 -9 q-1 -4 -5 -14.5t-6 -16.5q-2 -4 -6 -14l-2 -2q-2 -10 -6 -14t-9 -3q-13 4 -15 19q2 10 3 22q3 21 3 46q-2 3 9 32q-3 1 -9 5q-9 6 -41 31q-3 4 -10 12.5t-9 11.5q-10 18 -15 25l-6.5 16.5l-6.5 16.5q-2 14 -4 20q-1 18 -3 42q1 7 1 25q-1 2 2 19q4 15 4 19q0 3 8 24 q8 22 8 24q9 17 10 21q2 10 20 39q19 30 21 37l34 48l13 16q6 4 9 7q2 3 9 12q5 3 17 15q1 0 21 15l20 11l33 11q6 2 14 3l6 2h12q8 1 10 1l12 -7q3 -3 11 -9q1 0 5 -2.5t8 -4.5l2 -3q3 -3 5 -3l1 -1q22 17 51 33q14 30 19 43q1 2 11.5 9.5t13.5 7.5h9zM460 250q0 62 -19 88 q-11 20 -27 40q-1 2 -7 8q-5 -16 -33 -67q-30 -55 -31 -60q-22 -32 -42 -71q-5 -17 -7 -20q-1 -2 -3.5 -6t-3.5 -6q-17 -36 -25 -57q-3 -6 -8.5 -21.5l-8.5 -23.5q-1 -8 -6 -18l20 -1l4 1l8 2q11 0 31 2q19 3 46 18q7 3 21 13q25 16 42 37l6 11l13 24q11 24 13 32q1 3 5 16 q2 2 4.5 7l3.5 7q0 4 -1 7q5 25 5 38zM353 434l-8 8q-11 -8 -26 -8h-31q-4 0 -38 -22q-8 -11 -26 -33q-13 -15 -34 -50q-4 -6 -7 -10q-3 -9 -9 -21q-4 -8 -7 -13l-5.5 -14t-5.5 -13l-2 -4q-14 -26 -27 -67q-1 -10 -1.5 -16.5t-1 -11t-0.5 -6t0 -0.5q0 -55 22 -77 q19 -17 33 -22q10 22 15 35l41 103q28 56 53 111q32 59 65 131z" />
<glyph unicode="&#xd9;" horiz-adv-x="521" d="M423 571q-1 -7 -2 -8l-2 -2h-3l-3 -3h-2q-5 -3 -13 -3q-12 0 -27 7q-8 3 -24 10q-28 13 -49 29q-40 30 -45 33l-22 18q-8 10 -16 18q-1 1 -9 17q-7 11 -7 22l1 1q1 16 10 16q8 0 13.5 0.5t7.5 0.5t0 1q5 0 9 -1l6 -2q4 -2 7 -3q1 0 1 -1l2 -1l5 -2q3 -2 5 -5l78 -68 q1 -1 17 -15.5t24 -22.5q38 -35 38 -36zM563 548q0 -9 -1 -20l-1 -17q-4 -31 -10 -69q-3 -10 -4 -14q0 4 -0.5 0l-1 -8t-2.5 -16t-6 -29q-5 -9 -9 -24q-2 -8 -20 -66q-4 -10 -13 -38q-1 -3 -4.5 -10.5t-5.5 -13.5q-1 -1 -3 -4l-6 -9q-10 -38 -37 -86q-4 -8 -13 -20l-10 -10 q-1 -1 -17 -22q-2 -6 -8 -11l-10 -14q-8 -6 -18 -16q-6 -6 -7 -6q-6 -9 -18.5 -18t-27.5 -18q-3 -1 -9 -1q-1 0 -3 1l-4 2q-11 -10 -41 -10q-3 -1 -11 -1q-12 0 -17 5q-20 0 -29 8q-5 2 -7 5q-10 1 -29 20q-14 10 -21 21q-18 20 -37 57q0 3 -8 20t-8 19q0 3 -6 22t-6 24 q-8 34 -7 71q4 87 18 134q0 2 1.5 5.5t2.5 6.5q7 28 10 37q11 29 19 38q25 40 36 40q4 -8 4 -9l3 7q0 -8 2 0q-1 0 -2 -2l-1 -2q2 -1 3 -6q1 -1 -1 -14q0 -3 6 -14q0 -3 7 -10q0 -2 2 -4.5t10.5 -11.5t17.5 -21q7 -16 10 -44v-19l-3 -24v-12l-2 -41q0 -16 2 -34q3 -3 5 -30 q2 -26 4 -27q4 -3 10 -24q7 -22 15 -22q3 0 7 -16q2 -8 4.5 -11.5t4.5 -2.5q3 3 7.5 -8t5.5 -11q1 2 2 2q1 1 5 -4.5t6 -3.5q3 -3 6 -3q7 -4 16 -3q8 -2 20 3q6 0 22 12q16 19 36 71q2 10 10 34l7.5 40.5t8.5 47.5q8 43 8 52q-1 15 -8 33q-3 1 -10 18l-3 14l1 3q0 5 4 5 l22 58q1 0 21 38q19 39 21 39q1 0 5 3t9 5.5t9 2.5q2 -2 12 -0.5t11 -1.5t12 4.5t12 7.5q4 0 6 -8q1 0 1 -1l1 -2q0 -2 3 0q2 2 3 -1q-1 1 -1 0q10 0 10 -17z" />
<glyph unicode="&#xda;" horiz-adv-x="521" d="M563 548q0 -9 -1 -20l-1 -17q-4 -31 -10 -69q-3 -10 -4 -14q0 4 -0.5 0l-1 -8t-2.5 -16t-6 -29q-5 -9 -9 -24q-2 -8 -20 -66q-4 -10 -13 -38q-1 -3 -4.5 -10.5t-5.5 -13.5q-1 -1 -3 -4l-6 -9q-10 -38 -37 -86q-4 -8 -13 -20l-10 -10q-1 -1 -17 -22q-2 -6 -8 -11l-10 -14 q-8 -6 -18 -16q-6 -6 -7 -6q-6 -9 -18.5 -18t-27.5 -18q-3 -1 -9 -1q-1 0 -3 1l-4 2q-11 -10 -41 -10q-3 -1 -11 -1q-12 0 -17 5q-20 0 -29 8q-5 2 -7 5q-10 1 -29 20q-14 10 -21 21q-18 20 -37 57q0 3 -8 20t-8 19q0 3 -6 22t-6 24q-8 34 -7 71q4 87 18 134q0 2 1.5 5.5 t2.5 6.5q7 28 10 37q11 29 19 38q25 40 36 40q4 -8 4 -9l3 7q0 -8 2 0q-1 0 -2 -2l-1 -2q2 -1 3 -6q1 -1 -1 -14q0 -3 6 -14q0 -3 7 -10q0 -2 2 -4.5t10.5 -11.5t17.5 -21q7 -16 10 -44v-19l-3 -24v-12l-2 -41q0 -16 2 -34q3 -3 5 -30q2 -26 4 -27q4 -3 10 -24q7 -22 15 -22 q3 0 7 -16q2 -8 4.5 -11.5t4.5 -2.5q3 3 7.5 -8t5.5 -11q1 2 2 2q1 1 5 -4.5t6 -3.5q3 -3 6 -3q7 -4 16 -3q8 -2 20 3q6 0 22 12q16 19 36 71q2 10 10 34l7.5 40.5t8.5 47.5q8 43 8 52q-1 15 -8 33q-3 1 -10 18l-3 14l1 3q0 5 4 5l22 58q1 0 21 38q19 39 21 39q1 0 5 3 t9 5.5t9 2.5q2 -2 12 -0.5t11 -1.5t12 4.5t12 7.5q4 0 6 -8q1 0 1 -1l1 -2q0 -2 3 0q2 2 3 -1q-1 1 -1 0q10 0 10 -17zM423 742h4l5 -3l1 -4l-4 -1l-3 -8l1 -3l-5 -2l-8 -5v-3l3 -4l-4 -4l2 -8l-4 -3v-3l12 2v-1l-14 -11l-3 -10l-7 -11l-6 -7l-12 -11l-11 -8l-40 -24 l-36 -16l-7 -1h-17l-12 4h-8l-6 3v4l-4 4l-5 14l1 5l-2 6l2 4l6 6v2l30 27l14 10l41 30l30 18l29 7z" />
<glyph unicode="&#xdb;" horiz-adv-x="521" d="M467 589q0 -5 -6 -20q-6 -3 -10 -3q-11 0 -16 3q-9 9 -43 62l-22 33q-6 8 -13 9q-1 -1 -8 -3q-5 -5 -33 -37q-3 -5 -9 -12q-1 -2 -39 -46q-13 -10 -16 -23q-14 -8 -20 -8q-11 2 -14 6q-8 4 -16 25q0 1 1 2q0 9 19 36l24 31q18 23 54 64q5 4 17 16q8 6 13 11q2 2 9 5 q17 0 24 -7q2 -1 6 -3.5t6 -3.5q4 -3 11.5 -9.5t11.5 -9.5q3 -6 12 -16l33 -66q8 -15 16 -24v-1q2 -3 8 -11zM563 548q0 -9 -1 -20l-1 -17q-4 -31 -10 -69q-3 -10 -4 -14q0 4 -0.5 0l-1 -8t-2.5 -16t-6 -29q-5 -9 -9 -24q-2 -8 -20 -66q-4 -10 -13 -38q-1 -3 -4.5 -10.5 t-5.5 -13.5q-1 -1 -3 -4l-6 -9q-10 -38 -37 -86q-4 -8 -13 -20l-10 -10q-1 -1 -17 -22q-2 -6 -8 -11l-10 -14q-8 -6 -18 -16q-6 -6 -7 -6q-6 -9 -18.5 -18t-27.5 -18q-3 -1 -9 -1q-1 0 -3 1l-4 2q-11 -10 -41 -10q-3 -1 -11 -1q-12 0 -17 5q-20 0 -29 8q-5 2 -7 5 q-10 1 -29 20q-14 10 -21 21q-18 20 -37 57q0 3 -8 20t-8 19q0 3 -6 22t-6 24q-8 34 -7 71q4 87 18 134q0 2 1.5 5.5t2.5 6.5q7 28 10 37q11 29 19 38q25 40 36 40q4 -8 4 -9l3 7q0 -8 2 0q-1 0 -2 -2l-1 -2q2 -1 3 -6q1 -1 -1 -14q0 -3 6 -14q0 -3 7 -10q0 -2 2 -4.5 t10.5 -11.5t17.5 -21q7 -16 10 -44v-19l-3 -24v-12l-2 -41q0 -16 2 -34q3 -3 5 -30q2 -26 4 -27q4 -3 10 -24q7 -22 15 -22q3 0 7 -16q2 -8 4.5 -11.5t4.5 -2.5q3 3 7.5 -8t5.5 -11q1 2 2 2q1 1 5 -4.5t6 -3.5q3 -3 6 -3q7 -4 16 -3q8 -2 20 3q6 0 22 12q16 19 36 71 q2 10 10 34l7.5 40.5t8.5 47.5q8 43 8 52q-1 15 -8 33q-3 1 -10 18l-3 14l1 3q0 5 4 5l22 58q1 0 21 38q19 39 21 39q1 0 5 3t9 5.5t9 2.5q2 -2 12 -0.5t11 -1.5t12 4.5t12 7.5q4 0 6 -8q1 0 1 -1l1 -2q0 -2 3 0q2 2 3 -1q-1 1 -1 0q10 0 10 -17z" />
<glyph unicode="&#xdc;" horiz-adv-x="521" d="M232 761h2l8 -3l9 -4l8 1l-1 -7l10 -4l14 -13l6 -7l14 -33l1 -7v-12l-7 -12l-7 -8l-1 -2l-15 -2l-17 -2l-18 7l-8 4l-2 2l-24 17l-11 10l-2 5v13l-2 11l2 13l8 16l18 14zM387 759l22 -7l9 2l12 -15l14 -12l9 -24v-27l-13 -14l-5 -3l-10 -3l-26 4l-20 10l-21 19l-1 15 l-4 6l11 34l10 7l10 3zM563 548q0 -9 -1 -20l-1 -17q-4 -31 -10 -69q-3 -10 -4 -14q0 4 -0.5 0l-1 -8t-2.5 -16t-6 -29q-5 -9 -9 -24q-2 -8 -20 -66q-4 -10 -13 -38q-1 -3 -4.5 -10.5t-5.5 -13.5q-1 -1 -3 -4l-6 -9q-10 -38 -37 -86q-4 -8 -13 -20l-10 -10q-1 -1 -17 -22 q-2 -6 -8 -11l-10 -14q-8 -6 -18 -16q-6 -6 -7 -6q-6 -9 -18.5 -18t-27.5 -18q-3 -1 -9 -1q-1 0 -3 1l-4 2q-11 -10 -41 -10q-3 -1 -11 -1q-12 0 -17 5q-20 0 -29 8q-5 2 -7 5q-10 1 -29 20q-14 10 -21 21q-18 20 -37 57q0 3 -8 20t-8 19q0 3 -6 22t-6 24q-8 34 -7 71 q4 87 18 134q0 2 1.5 5.5t2.5 6.5q7 28 10 37q11 29 19 38q25 40 36 40q4 -8 4 -9l3 7q0 -8 2 0q-1 0 -2 -2l-1 -2q2 -1 3 -6q1 -1 -1 -14q0 -3 6 -14q0 -3 7 -10q0 -2 2 -4.5t10.5 -11.5t17.5 -21q7 -16 10 -44v-19l-3 -24v-12l-2 -41q0 -16 2 -34q3 -3 5 -30q2 -26 4 -27 q4 -3 10 -24q7 -22 15 -22q3 0 7 -16q2 -8 4.5 -11.5t4.5 -2.5q3 3 7.5 -8t5.5 -11q1 2 2 2q1 1 5 -4.5t6 -3.5q3 -3 6 -3q7 -4 16 -3q8 -2 20 3q6 0 22 12q16 19 36 71q2 10 10 34l7.5 40.5t8.5 47.5q8 43 8 52q-1 15 -8 33q-3 1 -10 18l-3 14l1 3q0 5 4 5l22 58q1 0 21 38 q19 39 21 39q1 0 5 3t9 5.5t9 2.5q2 -2 12 -0.5t11 -1.5t12 4.5t12 7.5q4 0 6 -8q1 0 1 -1l1 -2q0 -2 3 0q2 2 3 -1q-1 1 -1 0q10 0 10 -17z" />
<glyph unicode="&#xdd;" horiz-adv-x="600" d="M363 724h4l5 -3l1 -4l-4 -1l-3 -8l1 -3l-5 -2l-8 -5v-3l3 -4l-4 -4l2 -8l-4 -3v-3l12 2v-1l-14 -11l-3 -10l-7 -11l-6 -7l-12 -11l-11 -8l-40 -24l-36 -16l-7 -1h-17l-12 4h-8l-6 3v4l-4 4l-5 14l1 5l-2 6l2 4l6 6v2l30 27l14 10l41 30l30 18l29 7zM482 630l9 7l14 7 l1 -9l-5 -10l-9 -14l-6 -14l-20 -30l-7 -14l-143 -212l-5 -12l-17 -28l-7 -8l-9 -17v-3l-4 -3l-6 -10l-8 -12l-3 -7v-5l-6 -34l-6 -43l-4 -8l-8 -66l1 -9l-4 -24l-4 -25l-3 -6l-1 -12l-4 -14l-2 -3l-4 -12l1 -7l-4 -8l-11 -8l-36 -4l-24 8l-12 26l-4 30l-2 32v37l4 49l7 32 l7 38l7 35l3 27l-24 30l-23 31l-23 41l-19 29l-9 27l-1 20l-3 25l8 15l13 12l6 6l9 -5l4 -5l6 7l22 -8l13 -13l33 -41l17 -25l32 -54l11 -25l13 15l9 19l7 11l10 13l10 15l3 2l7 12l36 45l19 22l22 26l42 47l27 26l12 10l17 16l17 8z" />
<glyph unicode="&#xde;" horiz-adv-x="412" d="M357 188l3 -22l-1 -18l-8 -23l-10 -14l-14 -13l-18 -10l-21 -8h-29h-17l-19 7l-2 -1l-19 7l-5 3h-3l1 4l2 1l-2 2h-2l1 3l-2 2l4 1l-2 3h3l1 4l39 -4l16 1l13 3l11 8l7 11v10l-2 18l-8 26l-7 15l-13 21l-14 19l-2 1l-12 18l-1 2l-5 5l-10 17l-19 22l-31 -84l-8 -30 l-8 -16l-3 -17l-7 -15l-4 -17l-10 -60l-7 -30l-6 -33l-14 -36l-13 -14l-16 -9l-11 6l-3 46l2 6l-2 8v29l2 23l-2 5l-1 49l1 36l6 28l7 39l7 22l13 61l6 12l11 37l18 53l1 14l9 14l9 21l13 22l1 7l21 36l5 3l9 17l20 18l21 8h7l14 -6l8 -11l3 -24l-3 -50l-13 -29l-14 -30 l-10 -27l43 -45l1 -3l5 -4l41 -51l3 -7l5 -5l23 -37l6 -16l5 -7l2 -12l1 -3v-6z" />
<glyph unicode="&#xdf;" horiz-adv-x="526" d="M293 585l28 -1l45 -11l36 -20l15 -13l19 -20l18 -26l14 -34l5 -18l2 -17l-10 -25l-1 -8l-29 -36l-16 -8l-12 -9l-5 -3l-8 -2l-6 -10l12 -10l35 -23l31 -30l23 -31l10 -24l6 -33l-2 -25l-6 -14l-3 -13l-15 -17l-19 -19l-12 -10l-9 -11l-18 -15l-4 -1l-11 -10l-7 -3l-15 -9 l-24 -11l-28 -10l-28 -3l-10 -3l-19 -2l-21 -4l-5 2l-10 -4l-71 8l-17 12l-3 10l1 10l-3 8l3 5v14h4l1 5l14 -15l16 -11l24 -5h31l32 4l29 4l21 8l20 9l27 15l15 16l10 17l9 17l4 13v20l-5 15l-5 14l-19 18l-15 11l-32 9l-16 1l-52 -14l-14 -3l-20 8l-8 2l-5 3l-17 20l-3 3 l1 7l-7 13l7 14v5l3 3l-2 8l5 4l7 13l5 4l13 7v6l9 4h16l10 1l7 7l7 -1l20 7l13 5l29 30l17 15l6 10l2 22l-12 25l-10 17l-21 12l-24 1l-25 -1l-27 -12l-19 -19l-12 -17l-10 -27l-15 -39l-44 -144l-4 -19l-18 -70l-12 -26l-6 -18l-11 -50l-2 -15l-5 -26l-14 -93l-12 -16 l-13 -28l-1 -3l-19 -4l-5 7l2 3l-4 18l-3 12l14 144l17 109l36 146l51 162l11 24l3 10l11 22l19 20l16 18l14 11l13 7l35 13z" />
<glyph unicode="&#xe0;" d="M429 299q0 -1 -4 -10t-4 -12t-1.5 -13.5t-2.5 -18.5q-9 -9 -26.5 -64.5t-24.5 -73.5q-10 -22 -19 -81l-13 -83q-1 -5 -1 -16q0 -15 2 -24q-5 7 -21 24q-15 15 -19.5 28t-4.5 39q0 40 7 59q-5 6 -9 6t-10 -4.5t-13.5 -12t-25.5 -24l-39 -34.5q-5 -15 -22.5 -27.5 t-70.5 -39.5q-20 -23 -41 -23q-4 0 -19 11.5t-20 27.5q-4 15 -20.5 40t-16.5 46q0 17 10 53q11 4 28 21q3 17 11.5 32t50.5 79q10 8 22.5 28.5t33.5 38.5q46 62 77.5 92.5t55.5 30.5q16 0 41 -25q11 0 24.5 -10t40.5 -17l3 -1q3 -1 8 -3.5t10.5 -6.5t10.5 -9t8.5 -11 t3.5 -12zM316 283l-4 -1q-4 -2 -5 -2q3 -3 6 -4q1 1 3 7zM300 264q0 12 -10 12q-8 0 -31 -20q-16 -10 -40.5 -36.5l-89.5 -101.5q-65 -97 -65 -111q0 -8 7 -8t18.5 10t31.5 29.5t37 32.5q3 4 7.5 9t10.5 11l21 20.5l32 31.5q0 8 19.5 37.5t31.5 38.5q18 45 20 45zM412 436 l-2 -8l-2 -2h-3l-3 -3h-2q-4 -3 -13 -3q-12 0 -27 7q-8 3 -24 10q-28 13 -49 29l-45 33l-22 18q-8 10 -16 18q-1 1 -9 17q-7 11 -7 22l1 1q1 16 10 16q8 0 13.5 0.5t7.5 0.5t0 1q5 0 9 -1l6 -2q4 -2 7 -3q0 -1 1 -1t2 -1l5 -2q3 -2 5 -5l78 -68q1 -1 17 -15.5t24 -22.5 q38 -35 38 -36z" />
<glyph unicode="&#xe1;" d="M436 590h4l5 -3l1 -4l-4 -1l-3 -8l1 -3l-5 -2l-8 -5v-3l3 -4l-4 -4l2 -8l-4 -3v-3l12 2v-1l-14 -11l-3 -10l-7 -11l-6 -7l-12 -11l-11 -8l-40 -24l-36 -16l-7 -1h-17l-12 4h-8l-6 3v4l-4 4l-5 14l1 5l-2 6l2 4l6 6v2l30 27l14 10l41 30l30 18l29 7zM429 299q0 -1 -4 -10 t-4 -12t-1.5 -13.5t-2.5 -18.5q-9 -9 -26.5 -64.5t-24.5 -73.5q-10 -22 -19 -81l-13 -83q-1 -5 -1 -16q0 -15 2 -24q-5 7 -21 24q-15 15 -19.5 28t-4.5 39q0 40 7 59q-5 6 -9 6t-10 -4.5t-13.5 -12t-25.5 -24l-39 -34.5q-5 -15 -22.5 -27.5t-70.5 -39.5q-20 -23 -41 -23 q-4 0 -19 11.5t-20 27.5q-4 15 -20.5 40t-16.5 46q0 17 10 53q11 4 28 21q3 17 11.5 32t50.5 79q10 8 22.5 28.5t33.5 38.5q46 62 77.5 92.5t55.5 30.5q16 0 41 -25q11 0 24.5 -10t40.5 -17l3 -1q3 -1 8 -3.5t10.5 -6.5t10.5 -9t8.5 -11t3.5 -12zM316 283l-4 -1q-4 -2 -5 -2 q3 -3 6 -4q1 1 3 7zM300 264q0 12 -10 12q-8 0 -31 -20q-16 -10 -40.5 -36.5l-89.5 -101.5q-65 -97 -65 -111q0 -8 7 -8t18.5 10t31.5 29.5t37 32.5q3 4 7.5 9t10.5 11l21 20.5l32 31.5q0 8 19.5 37.5t31.5 38.5q18 45 20 45z" />
<glyph unicode="&#xe2;" d="M429 299q0 -1 -4 -10t-4 -12t-1.5 -13.5t-2.5 -18.5q-9 -9 -26.5 -64.5t-24.5 -73.5q-10 -22 -19 -81l-13 -83q-1 -5 -1 -16q0 -15 2 -24q-5 7 -21 24q-15 15 -19.5 28t-4.5 39q0 40 7 59q-5 6 -9 6t-10 -4.5t-13.5 -12t-25.5 -24l-39 -34.5q-5 -15 -22.5 -27.5 t-70.5 -39.5q-20 -23 -41 -23q-4 0 -19 11.5t-20 27.5q-4 15 -20.5 40t-16.5 46q0 17 10 53q11 4 28 21q3 17 11.5 32t50.5 79q10 8 22.5 28.5t33.5 38.5q46 62 77.5 92.5t55.5 30.5q16 0 41 -25q11 0 24.5 -10t40.5 -17l3 -1q3 -1 8 -3.5t10.5 -6.5t10.5 -9t8.5 -11 t3.5 -12zM316 283l-4 -1q-4 -2 -5 -2q3 -3 6 -4q1 1 3 7zM300 264q0 12 -10 12q-8 0 -31 -20q-16 -10 -40.5 -36.5l-89.5 -101.5q-65 -97 -65 -111q0 -8 7 -8t18.5 10t31.5 29.5t37 32.5q3 4 7.5 9t10.5 11l21 20.5l32 31.5q0 8 19.5 37.5t31.5 38.5q18 45 20 45zM455 434 q0 -5 -6 -20q-6 -3 -10 -3q-11 0 -16 3q-9 9 -43 62l-22 33q-6 8 -13 9q-1 -1 -8 -3q-5 -5 -33 -37l-9 -12q-1 -2 -39 -46q-13 -10 -16 -23q-14 -8 -20 -8q-11 2 -14 6q-8 4 -16 25q0 1 1 2q0 9 19 36l24 31q18 23 54 64q5 4 17 16q8 6 13 11q2 2 9 5q17 0 24 -7 q2 -1 6 -3.5t6 -3.5q4 -3 11.5 -9.5t11.5 -9.5q3 -6 12 -16l33 -66q8 -15 16 -24v-1q2 -3 8 -11z" />
<glyph unicode="&#xe3;" d="M429 299q0 -1 -4 -10t-4 -12t-1.5 -13.5t-2.5 -18.5q-9 -9 -26.5 -64.5t-24.5 -73.5q-10 -22 -19 -81l-13 -83q-1 -5 -1 -16q0 -15 2 -24q-5 7 -21 24q-15 15 -19.5 28t-4.5 39q0 40 7 59q-5 6 -9 6t-10 -4.5t-13.5 -12t-25.5 -24l-39 -34.5q-5 -15 -22.5 -27.5 t-70.5 -39.5q-20 -23 -41 -23q-4 0 -19 11.5t-20 27.5q-4 15 -20.5 40t-16.5 46q0 17 10 53q11 4 28 21q3 17 11.5 32t50.5 79q10 8 22.5 28.5t33.5 38.5q46 62 77.5 92.5t55.5 30.5q16 0 41 -25q11 0 24.5 -10t40.5 -17l3 -1q3 -1 8 -3.5t10.5 -6.5t10.5 -9t8.5 -11 t3.5 -12zM316 283l-4 -1q-4 -2 -5 -2q3 -3 6 -4q1 1 3 7zM300 264q0 12 -10 12q-8 0 -31 -20q-16 -10 -40.5 -36.5l-89.5 -101.5q-65 -97 -65 -111q0 -8 7 -8t18.5 10t31.5 29.5t37 32.5q3 4 7.5 9t10.5 11l21 20.5l32 31.5q0 8 19.5 37.5t31.5 38.5q18 45 20 45zM495 511 q-2 -5 -6 -11l1 -1q-5 -11 -19 -27q-1 -3 -6 -13l-2 -1v-3q-3 -6 -9 -16v-3q0 -2 1 -3q-6 -10 -10 -16q1 1 1 0q-1 0 -1 -2q-5 -3 -13 -10l-1 -1q-7 -7 -11 -9q-14 -6 -40 -6q-34 3 -71 23q-2 2 -14 9q-2 2 -12 8q-2 0 -10 4l-8 4l-7 -4q-6 -4 -7 -19q-6 -16 -22 -16 q-5 0 -8 1h-4q-1 1 -3.5 1.5t-3.5 0.5h-4q-5 1 -10 10q-2 2 -6 13l1 1q1 1 1 2q-1 1 -1 4q0 7 4 22q15 34 25 42q21 19 35 17q3 1 10 1q2 0 9.5 -1.5t13.5 -2.5q2 -1 5 -2t4 -2l28 -18q13 -13 21 -22q1 -1 3 -5v-1q3 -9 9 -17l1 -1l6 -2h7q12 2 24 11l39 46q18 19 24 19 l21 1q2 0 10 -2q1 -1 5 -3z" />
<glyph unicode="&#xe4;" d="M244 532h2l8 -3l9 -4l8 1l-1 -7l10 -4l14 -13l6 -7l14 -33l1 -7v-12l-7 -12l-7 -8l-1 -2l-15 -2l-17 -2l-18 7l-8 4l-2 2l-24 17l-11 10l-2 5v13l-2 11l2 13l8 16l18 14zM399 530l22 -7l9 2l12 -15l14 -12l9 -24v-27l-13 -14l-5 -3l-10 -3l-26 4l-20 10l-21 19l-1 15 l-4 6l11 34l10 7l10 3zM429 299q0 -1 -4 -10t-4 -12t-1.5 -13.5t-2.5 -18.5q-9 -9 -26.5 -64.5t-24.5 -73.5q-10 -22 -19 -81l-13 -83q-1 -5 -1 -16q0 -15 2 -24q-5 7 -21 24q-15 15 -19.5 28t-4.5 39q0 40 7 59q-5 6 -9 6t-10 -4.5t-13.5 -12t-25.5 -24l-39 -34.5 q-5 -15 -22.5 -27.5t-70.5 -39.5q-20 -23 -41 -23q-4 0 -19 11.5t-20 27.5q-4 15 -20.5 40t-16.5 46q0 17 10 53q11 4 28 21q3 17 11.5 32t50.5 79q10 8 22.5 28.5t33.5 38.5q46 62 77.5 92.5t55.5 30.5q16 0 41 -25q11 0 24.5 -10t40.5 -17l3 -1q3 -1 8 -3.5t10.5 -6.5 t10.5 -9t8.5 -11t3.5 -12zM316 283l-4 -1q-4 -2 -5 -2q3 -3 6 -4q1 1 3 7zM300 264q0 12 -10 12q-8 0 -31 -20q-16 -10 -40.5 -36.5l-89.5 -101.5q-65 -97 -65 -111q0 -8 7 -8t18.5 10t31.5 29.5t37 32.5q3 4 7.5 9t10.5 11l21 20.5l32 31.5q0 8 19.5 37.5t31.5 38.5 q18 45 20 45z" />
<glyph unicode="&#xe5;" d="M429 299q0 -1 -4 -10t-4 -12t-1.5 -13.5t-2.5 -18.5q-9 -9 -26.5 -64.5t-24.5 -73.5q-10 -22 -19 -81l-13 -83q-1 -5 -1 -16q0 -15 2 -24q-5 7 -21 24q-15 15 -19.5 28t-4.5 39q0 40 7 59q-5 6 -9 6t-10 -4.5t-13.5 -12t-25.5 -24l-39 -34.5q-5 -15 -22.5 -27.5 t-70.5 -39.5q-20 -23 -41 -23q-4 0 -19 11.5t-20 27.5q-4 15 -20.5 40t-16.5 46q0 17 10 53q11 4 28 21q3 17 11.5 32t50.5 79q10 8 22.5 28.5t33.5 38.5q46 62 77.5 92.5t55.5 30.5q16 0 41 -25q11 0 24.5 -10t40.5 -17l3 -1q3 -1 8 -3.5t10.5 -6.5t10.5 -9t8.5 -11 t3.5 -12zM316 283l-4 -1q-4 -2 -5 -2q3 -3 6 -4q1 1 3 7zM300 264q0 12 -10 12q-8 0 -31 -20q-16 -10 -40.5 -36.5l-89.5 -101.5q-65 -97 -65 -111q0 -8 7 -8t18.5 10t31.5 29.5t37 32.5q3 4 7.5 9t10.5 11l21 20.5l32 31.5q0 8 19.5 37.5t31.5 38.5q18 45 20 45zM244 505 q0 4 2 18l7 17v5q3 3 4 5q17 32 31 42l24 12q2 1 8 2.5t9 2.5q4 -1 26 -6q5 -5 12 -9l9 -9q3 -3 6 -4q6 -5 13 -16q3 -1 6 -6q7 -14 9 -20q2 -9 2.5 -12t0.5 -1q0 -28 -7 -46l-6 -6q-11 -11 -33 -25q-38 -23 -51 -16q-2 0 -8 -1t-7 -1q-5 0 -18.5 5t-16.5 8 q-15 15 -18.5 25.5t-3.5 35.5zM361 523q0 29 -21 29q-3 0 -13 -10l-11 -12l-1 -1q-1 -1 -1 -2q-17 -11 -17 -34q0 -18 9 -18q0 3 30 19q25 13 25 29z" />
<glyph unicode="&#xe6;" horiz-adv-x="804" d="M657 2q26 12 56 32.5t32 20.5q3 0 7 -2q-2 -15 -9 -34l-7 -8q-6 -8 -15 -17t-23 -21.5t-31 -23.5t-36.5 -21t-43.5 -16t-48 -6q-53 0 -131 97q-22 29 -32 69q-5 -21 -9 -46l-13 -84q-1 -4 -1 -15q0 -16 2 -24q-9 12 -21 24q-15 15 -19.5 28t-4.5 39q0 40 7 59q-4 5 -9 5 q-4 0 -10 -4.5t-13.5 -11.5l-25.5 -23.5l-39 -34.5q-5 -15 -22.5 -27.5t-70.5 -39.5q-21 -24 -41 -24q-4 0 -19 11.5t-20 27.5q-4 15 -20.5 40t-16.5 47q0 18 10 52q11 5 28 21q2 13 5.5 20.5t16.5 29t40 62.5q10 8 22.5 28t33.5 39q46 61 77.5 91.5t55.5 30.5q17 0 41 -24 q11 0 24.5 -10.5t40.5 -17.5q0 1 4.5 -1t11 -6t13 -9t11 -12t4.5 -14q0 -2 -4 -11t-4 -11v-2l14 12q17 22 49 54l31 17q16 7 19 23h8q2 0 11 -7.5t11 -7.5l46 -8l24 -3q35 -9 70.5 -39.5t35.5 -57.5q0 -34 -17 -60.5t-40 -40t-50.5 -22t-43.5 -10.5t-24 -2q-75 0 -98 18 q-38 -62 -38 -95q0 -8 14 -28q13 -19 20.5 -22.5t34.5 -6.5q25 -15 45 -15q34 0 94 28zM585 267q-32 -18 -56 -47.5t-41 -56.5q20 -6 21 -6q10 0 50 25q30 19 46.5 37t19 29.5t7.5 24.5q-12 12 -18 12zM300 218q18 46 20 46q0 11 -10 11q-7 0 -31 -19q-25 -15 -130 -139 q-15 -20 -40 -60t-25 -50q0 -9 7 -9t18.5 10t32 30t36.5 33q3 5 8.5 10.5l23.5 22.5l39 38q0 8 19.5 37.5t31.5 38.5zM333 275q1 1 2 3.5t1 3.5l-4 -1q-4 -1 -5 -1q1 -2 6 -5z" />
<glyph unicode="&#xe7;" horiz-adv-x="457" d="M430 143l-6 -7q-7 -6 -7 -8q1 -2 -1 -6l-3 -5q0 -5 1 -5q-6 -2 -11 -20q-3 -1 -9 -5q-2 -6 -4 -9q-1 -1 -17 -12q-1 -1 -13 -11q-1 -1 -10.5 -6t-17.5 -10q-4 -4 -12 -5q-35 -23 -47 -23q0 -5 3 -9q-1 -3 0 -7q-1 -1 -1 -4t1 -5v-4q0 -2 -1.5 -12t-1.5 -12v-15 q1 -2 1 -10q0 -2 6 -14q7 -13 4 -17q2 -6 1 -12q1 -16 -17 -42q-7 -2 -34 -11q-2 0 -10.5 -2t-10.5 -2q-3 -1 -6 -1v0h-7q-2 -1 -7 -1.5t-8 -0.5q-14 3 -31 4q-1 1 -33 -4h-2h-10h-9l-2 1q1 3 2 4.5t2 0.5q15 -6 36 -4h-3l-2 1l-1 3h-3l6 3q31 1 46 16q8 4 41 25l2 9 q1 6 0 13t-10 12q0 12 -23 24h-4l-18 -1q-20 -1 -58 25l-12 27q-5 7 -3 27q2 25 1 27l-2 2q-7 7 -11 16q0 2 -6.5 9.5t-6.5 8.5q0 3 -9 17q-8 16 -8 18q-2 4 -8 22q-1 4 -1 15q-1 1 -1 3q0 26 16 71q4 9 22.5 35.5t46.5 52.5q32 31 55 37l3 2q3 2 5 2q1 0 23 8q22 9 25 7 q10 -1 26 -10q11 -5 20 -20q2 -1 6 -7q7 0 17 -2l8 -2v-3q-4 -4 -6 -4q0 1 -3 4l1 13q4 3 12 11q0 6 -2 6t-5 -7l-3 -8q-10 -16 -11 -18q-5 -4 -18 -17q-19 -8 -24 -13q-9 -3 -11 -4q-10 -4 -20 -10q-16 -16 -31 -46q-13 -17 -22 -32q-1 -4 -17 -31q-14 -26 -14 -33l-1 -41 v3q2 -29 35 -29q20 0 41 6q6 2 89 28q22 8 74 35q2 2 14 2q3 0 16 4.5t15 4.5l1 -1l2 -4z" />
<glyph unicode="&#xe8;" horiz-adv-x="423" d="M399 297q0 -21 -13 -51q-11 -30 -27 -41q-6 -4 -40 -22q-76 -21 -95 -21q-76 0 -98 18q-38 -62 -38 -95q0 -8 14 -28q13 -17 21 -22q7 -4 34 -7l22 -12q5 -3 23 -3q34 0 94 28q63 28 82 52q9 2 13 -1q-2 -15 -9 -34q-16 -19 -71 -68q-18 -17 -62 -31q-42 -14 -71 -14 q-22 0 -42 14q-53 38 -89 83q-19 23 -26 50q-16 54 -16 87q5 10 13 44q0 5 15 19q1 2 6 21q6 4 12 10q1 9 9 24l16 14l18 15q17 22 49 54l31 17q16 7 19 23h8q2 0 11 -7.5t11 -7.5q23 -4 47 -7l23 -4q27 -7 64 -34q42 -32 42 -63zM271 312q-12 12 -18 12l-29 -18 q-29 -16 -44 -35q-9 -11 -53 -69q19 -6 21 -6q10 0 50 25q39 25 46 35q21 34 27 56zM386 433q-2 -7 -2 -8l-2 -2h-3l-3 -3h-2q-4 -3 -13 -3q-12 0 -27 7q-8 3 -24 10q-28 13 -49 29l-45 33l-22 18q-8 10 -16 18q-1 1 -9 17q-7 11 -7 22l1 1q1 16 10 16q8 0 13.5 0.5t7.5 0.5 t0 1q5 0 9 -1l6 -2q4 -2 7 -3l1 -1q1 -1 2 -1l5 -2q3 -2 5 -5l78 -68q1 -1 17 -15.5t24 -22.5q38 -35 38 -36z" />
<glyph unicode="&#xe9;" horiz-adv-x="423" d="M352 591h4l5 -3l1 -4l-4 -1l-3 -8l1 -3l-5 -2l-8 -5v-3l3 -4l-4 -4l2 -8l-4 -3v-3l12 2v-1l-14 -11l-3 -10l-7 -11l-6 -7l-12 -11l-11 -8l-40 -24l-36 -16l-7 -1h-17l-12 4h-8l-6 3v4l-4 4l-5 14l1 5l-2 6l2 4l6 6v2l30 27l14 10l41 30l30 18l29 7zM399 297 q0 -21 -13 -51q-11 -30 -27 -41q-6 -4 -40 -22q-76 -21 -95 -21q-76 0 -98 18q-38 -62 -38 -95q0 -8 14 -28q13 -17 21 -22q7 -4 34 -7l22 -12q5 -3 23 -3q34 0 94 28q63 28 82 52q9 2 13 -1q-2 -15 -9 -34q-16 -19 -71 -68q-18 -17 -62 -31q-42 -14 -71 -14q-22 0 -42 14 q-53 38 -89 83q-19 23 -26 50q-16 54 -16 87q5 10 13 44q0 5 15 19q1 2 6 21q6 4 12 10q1 9 9 24l16 14l18 15q17 22 49 54l31 17q16 7 19 23h8q2 0 11 -7.5t11 -7.5q23 -4 47 -7l23 -4q27 -7 64 -34q42 -32 42 -63zM271 312q-12 12 -18 12l-29 -18q-29 -16 -44 -35 q-9 -11 -53 -69q19 -6 21 -6q10 0 50 25q39 25 46 35q21 34 27 56z" />
<glyph unicode="&#xea;" horiz-adv-x="423" d="M399 297q0 -21 -13 -51q-11 -30 -27 -41q-6 -4 -40 -22q-76 -21 -95 -21q-76 0 -98 18q-38 -62 -38 -95q0 -8 14 -28q13 -17 21 -22q7 -4 34 -7l22 -12q5 -3 23 -3q34 0 94 28q63 28 82 52q9 2 13 -1q-2 -15 -9 -34q-16 -19 -71 -68q-18 -17 -62 -31q-42 -14 -71 -14 q-22 0 -42 14q-53 38 -89 83q-19 23 -26 50q-16 54 -16 87q5 10 13 44q0 5 15 19q1 2 6 21q6 4 12 10q1 9 9 24l16 14l18 15q17 22 49 54l31 17q16 7 19 23h8q2 0 11 -7.5t11 -7.5q23 -4 47 -7l23 -4q27 -7 64 -34q42 -32 42 -63zM271 312q-12 12 -18 12l-29 -18 q-29 -16 -44 -35q-9 -11 -53 -69q19 -6 21 -6q10 0 50 25q39 25 46 35q21 34 27 56zM356 469q0 -5 -6 -20q-6 -3 -10 -3q-12 0 -16 3q-9 9 -43 62l-22 33q-6 8 -13 9q-1 -1 -8 -3q-5 -5 -33 -37q-3 -5 -9 -12q-1 -2 -39 -46q-13 -10 -16 -23q-14 -8 -20 -8q-11 2 -14 6 q-8 4 -16 25q0 1 1 2q0 9 19 36l24 31q18 23 54 64q5 4 17 16q8 6 13 11q2 2 9 5q17 0 24 -7q2 -1 6 -3.5t6 -3.5q4 -3 11.5 -9.5t11.5 -9.5q3 -6 12 -16l33 -66q8 -15 16 -24v-1q2 -3 8 -11z" />
<glyph unicode="&#xeb;" horiz-adv-x="423" d="M151 563h2l8 -3l9 -4l8 1l-1 -7l10 -4l14 -13l6 -7l14 -33l1 -7v-12l-7 -12l-7 -8l-1 -2l-15 -2l-17 -2l-18 7l-8 4l-2 2l-24 17l-11 10l-2 5v13l-2 11l2 13l8 16l18 14zM306 561l22 -7l9 2l12 -15l14 -12l9 -24v-27l-13 -14l-5 -3l-10 -3l-26 4l-20 10l-21 19l-1 15 l-4 6l11 34l10 7l10 3zM399 297q0 -21 -13 -51q-11 -30 -27 -41q-6 -4 -40 -22q-76 -21 -95 -21q-76 0 -98 18q-38 -62 -38 -95q0 -8 14 -28q13 -17 21 -22q7 -4 34 -7l22 -12q5 -3 23 -3q34 0 94 28q63 28 82 52q9 2 13 -1q-2 -15 -9 -34q-16 -19 -71 -68q-18 -17 -62 -31 q-42 -14 -71 -14q-22 0 -42 14q-53 38 -89 83q-19 23 -26 50q-16 54 -16 87q5 10 13 44q0 5 15 19q1 2 6 21q6 4 12 10q1 9 9 24l16 14l18 15q17 22 49 54l31 17q16 7 19 23h8q2 0 11 -7.5t11 -7.5q23 -4 47 -7l23 -4q27 -7 64 -34q42 -32 42 -63zM271 312q-12 12 -18 12 l-29 -18q-29 -16 -44 -35q-9 -11 -53 -69q19 -6 21 -6q10 0 50 25q39 25 46 35q21 34 27 56z" />
<glyph unicode="&#xec;" horiz-adv-x="235" d="M139 266l10 -3l5 3h3l13 -11l6 -3l12 -23l1 -16v-16l-14 -31l-23 -74l-5 -46l-1 -17l10 -3l28 2l38 9l-7 -12v-5l-10 -16l-6 -7l2 -5l-12 -8h-3l-3 -6l-13 -5l-3 -3l-29 -18l-11 -8l-21 -3l-4 -2l-4 3l-20 8l-24 18l-14 18l-7 16l-6 35v44l6 26l19 48l29 50l26 34l18 21z M318 360l-2 -8l-2 -2h-3l-3 -3h-2q-4 -3 -13 -3q-12 0 -27 7q-8 3 -24 10q-28 13 -49 29l-45 33l-22 18q-8 10 -16 18q-1 1 -9 17q-7 11 -7 22l1 1q1 16 10 16q8 0 13.5 0.5t7.5 0.5t0 1q5 0 9 -1l6 -2q4 -2 7 -3q0 -1 1 -1t2 -1l5 -2q3 -2 5 -5l78 -68q1 -1 17 -15.5 t24 -22.5q38 -35 38 -36z" />
<glyph unicode="&#xed;" horiz-adv-x="235" d="M316 552h4l5 -3l1 -4l-4 -1l-3 -8l1 -3l-5 -2l-8 -5v-3l3 -4l-4 -4l2 -8l-4 -3v-3l12 2v-1l-14 -11l-3 -10l-7 -11l-6 -7l-12 -11l-11 -8l-40 -24l-36 -16l-7 -1h-17l-12 4h-8l-6 3v4l-4 4l-5 14l1 5l-2 6l2 4l6 6v2l30 27l14 10l41 30l30 18l29 7zM139 266l10 -3l5 3h3 l13 -11l6 -3l12 -23l1 -16v-16l-14 -31l-23 -74l-5 -46l-1 -17l10 -3l28 2l38 9l-7 -12v-5l-10 -16l-6 -7l2 -5l-12 -8h-3l-3 -6l-13 -5l-3 -3l-29 -18l-11 -8l-21 -3l-4 -2l-4 3l-20 8l-24 18l-14 18l-7 16l-6 35v44l6 26l19 48l29 50l26 34l18 21z" />
<glyph unicode="&#xee;" horiz-adv-x="235" d="M139 266l10 -3l5 3h3l13 -11l6 -3l12 -23l1 -16v-16l-14 -31l-23 -74l-5 -46l-1 -17l10 -3l28 2l38 9l-7 -12v-5l-10 -16l-6 -7l2 -5l-12 -8h-3l-3 -6l-13 -5l-3 -3l-29 -18l-11 -8l-21 -3l-4 -2l-4 3l-20 8l-24 18l-14 18l-7 16l-6 35v44l6 26l19 48l29 50l26 34l18 21z M335 407q0 -5 -6 -20q-6 -3 -10 -3q-11 0 -16 3q-9 9 -43 62l-22 33q-6 8 -13 9q-1 -1 -8 -3q-5 -5 -33 -37q-3 -5 -9 -12q-1 -2 -39 -46q-13 -10 -16 -23q-14 -8 -20 -8q-11 2 -14 6q-8 4 -16 25q0 1 1 2q0 9 19 36l24 31q18 23 54 64q5 4 17 16q8 6 13 11q2 2 9 5 q17 0 24 -7q2 -1 6 -3.5t6 -3.5q4 -3 11.5 -9.5t11.5 -9.5q3 -6 12 -16l33 -66q8 -15 16 -24v-1q2 -3 8 -11z" />
<glyph unicode="&#xef;" horiz-adv-x="235" d="M127 532h2l8 -3l9 -4l8 1l-1 -7l10 -4l14 -13l6 -7l14 -33l1 -7v-12l-7 -12l-7 -8l-1 -2l-15 -2l-17 -2l-18 7l-8 4l-2 2l-24 17l-11 10l-2 5v13l-2 11l2 13l8 16l18 14zM282 530l22 -7l9 2l12 -15l14 -12l9 -24v-27l-13 -14l-5 -3l-10 -3l-26 4l-20 10l-21 19l-1 15 l-4 6l11 34l10 7l10 3zM139 266l10 -3l5 3h3l13 -11l6 -3l12 -23l1 -16v-16l-14 -31l-23 -74l-5 -46l-1 -17l10 -3l28 2l38 9l-7 -12v-5l-10 -16l-6 -7l2 -5l-12 -8h-3l-3 -6l-13 -5l-3 -3l-29 -18l-11 -8l-21 -3l-4 -2l-4 3l-20 8l-24 18l-14 18l-7 16l-6 35v44l6 26l19 48 l29 50l26 34l18 21z" />
<glyph unicode="&#xf0;" horiz-adv-x="457" d="M362 540l-18 -17l-24 -17q4 -12 6 -19q9 -15 22 -56v-3q19 -50 28 -93q19 -87 20 -100l2 -3v-3l6 -23q2 -4 12 -34l3 -15q0 -3 4 -11q0 -1 2 -11l4 -20l2 -23q4 -9 4 -42q2 -32 0 -43q-6 -24 -17 -33l-7 -5q-5 -3 -37 -17q-33 -16 -46 -17q-11 -5 -52 1q-24 5 -52 21 q-18 3 -78 47q-54 37 -104 122q-1 2 -10 25.5t-14 33.5l-2 33l4 18q4 27 25 60q13 16 30 33q25 23 35 25l8 2q13 5 20 6q5 0 6 -2l9.5 2.5t7.5 1.5l45 -9q19 -3 39 -13q1 1 5 1q10 -3 24 -11q8 -3 20 -18q8 -4 20 -13q2 0 3 3q0 2 -3 32q-1 2 -4 14l-5 20q-3 11 -6 27 q-6 19 -18 85l-6 -3l-20 -12l-29 -15l-14 -9l-11 -3l-1 2h-9l-3 -2l-4 8l-2 2l4 11l2 5l14 10l25 15l46 30q0 1 -0.5 3.5t-0.5 3.5q-5 14 -14 46q-3 15 -10 33q-11 18 -8 30q4 6 12 5q4 -3 23 -34l-1 -3q2 -2 4 -9l3 -8q-1 0 -0.5 -1.5t4 -6.5t8.5 -11q11 -25 12 -28l28 16 l29 17l63 36l16 7l6 1l1 -1l-11 -9l1 -2l-4 -2l-10 -10v-4l-8 -7l-8 -9l-20 -15l-11 -9l-2 -3l-13 -5v-2zM332 164q-12 30 -21 48t-18 30q-12 6 -30 18l-41 16q-12 4 -27 4h-19q-25 7 -50.5 -12.5t-19.5 -27.5q1 9 4 2.5t7 -27.5q11 -58 24 -78q35 -50 50 -61l18 -12 q5 -4 10 -9l65 -33q16 -2 30.5 6t17.5 22q6 44 3 52q1 25 -3 62z" />
<glyph unicode="&#xf1;" horiz-adv-x="391" d="M329 72l2 -45l6 -22l22 -54l6 -10l-8 -2l-7 -6l-6 7l-10 1v-4l-3 -1l-10 3l-13 3l-36 42l-21 67l2 5l-5 13l3 52l-5 3l8 19l-1 3v5l3 3v29l4 20l1 14l3 19v9l-5 12l-9 8l-17 2l-22 -5l-6 -17l-6 -16l-8 -12l-9 -28l-6 -10l-5 -18l-15 -33l-16 -38l-7 -15l-1 -8l-10 -22 v-7l-5 -8l-11 -29l-3 -4l-7 -11l-9 -3v-5l-10 2h-19l-8 11l-3 3l-7 3l-8 10l-3 5l-7 2l-2 13l5 10l8 40l2 5l15 48l3 12l16 54l14 61l36 101l17 8l22 -1l1 -1l12 3l3 -2l13 -14l-1 -39l39 29l23 7l39 8l53 -20l12 -11l2 -3l13 -17l4 -31l-2 -33l-3 -12l-7 -18l-10 -32 l-7 -25l-5 -27l-4 -8l-2 -6l2 -4l2 -10v-11zM449 512q-2 -5 -6 -11l1 -1q-5 -10 -19 -27q-1 -3 -6 -13l-2 -1v-3q-3 -6 -9 -16v-3q0 -2 1 -3q-6 -10 -10 -16q1 1 1 0q-1 0 -1 -2q-5 -3 -13 -10l-1 -1q-7 -7 -11 -9q-14 -6 -40 -6q-34 3 -71 23q-2 2 -14 9q-2 2 -12 8 q-2 0 -10 4l-8 4l-7 -4q-6 -4 -7 -19q-6 -16 -22 -16q-5 0 -8 1h-4q-1 1 -3.5 1.5t-3.5 0.5h-4q-5 1 -10 10q-2 2 -6 13q0 1 1 1l1 2q-1 1 -1 4q0 7 4 22q15 34 25 42q21 19 35 17q3 1 10 1q2 0 9.5 -1.5t13.5 -2.5q1 0 4 -2t5 -2l28 -18q13 -13 21 -22q1 -1 3 -5v-1 q3 -9 9 -17l1 -1l6 -2h7q12 2 24 11l39 46q18 19 24 19l21 1q2 0 10 -2q1 -1 5 -3z" />
<glyph unicode="&#xf2;" horiz-adv-x="472" d="M457 232q0 -49 -22 -92q-3 -14 -7 -23q-23 -55 -84 -98q-32 -22 -114 -64q-2 -1 -28 -4q-28 -33 -80 -33q-25 0 -32 5l-37 31q-6 -1 -23 4q-12 11 -17 35q-5 29 -7 33q5 8 5 12q0 2 -3 7t-3 6q0 6 3 27.5t3 27.5q5 1 21 10q4 4 4 11q0 2 -3 12.5t-2 12.5q20 17 37 45 q6 12 24 42q16 24 78 86q68 68 82 68q2 0 8.5 -1.5t8.5 -1.5q8 0 27 28q2 -1 21 -16l30 -7q12 -6 36 -15q8 0 33 -5q28 -40 35 -70q6 -23 6 -73zM345 245v11q-5 1 -11 7q3 5 3 11q0 10 -5.5 21t-13.5 11q-14 0 -63 -43q-33 -29 -48 -44q-65 -75 -98 -117q-4 -4 -13 -30 q-8 -27 -8 -32q0 -8 9 -17.5t17 -9.5q55 0 125 47q16 4 38 16q5 5 31 55q12 22 18 70q5 5 7 6q0 34 12 38zM427 471q-1 -8 -2 -8l-2 -2h-3l-3 -3h-2q-4 -3 -13 -3q-12 0 -27 7q-8 3 -24 10q-28 13 -49 29q-40 30 -45 33l-22 18q-8 10 -16 18q-1 1 -9 17q-7 11 -7 22l1 1 q1 16 10 16q8 0 13.5 0.5t7.5 0.5t0 1q5 0 9 -1l6 -2q4 -2 7 -3q1 0 1 -1l2 -1l5 -2q3 -2 5 -5l78 -68q1 -1 17 -15.5t24 -22.5q38 -35 38 -36z" />
<glyph unicode="&#xf3;" horiz-adv-x="472" d="M424 588h4l5 -3l1 -4l-4 -1l-3 -8l1 -3l-5 -2l-8 -5v-3l3 -4l-4 -4l2 -8l-4 -3v-3l12 2v-1l-14 -11l-3 -10l-7 -11l-6 -7l-12 -11l-11 -8l-40 -24l-36 -16l-7 -1h-17l-12 4h-8l-6 3v4l-4 4l-5 14l1 5l-2 6l2 4l6 6v2l30 27l14 10l41 30l30 18l29 7zM457 232 q0 -49 -22 -92q-3 -14 -7 -23q-23 -55 -84 -98q-32 -22 -114 -64q-2 -1 -28 -4q-28 -33 -80 -33q-25 0 -32 5l-37 31q-6 -1 -23 4q-12 11 -17 35q-5 29 -7 33q5 8 5 12q0 2 -3 7t-3 6q0 6 3 27.5t3 27.5q5 1 21 10q4 4 4 11q0 2 -3 12.5t-2 12.5q20 17 37 45q6 12 24 42 q16 24 78 86q68 68 82 68q2 0 8.5 -1.5t8.5 -1.5q8 0 27 28q2 -1 21 -16l30 -7q12 -6 36 -15q8 0 33 -5q28 -40 35 -70q6 -23 6 -73zM345 245v11q-5 1 -11 7q3 5 3 11q0 10 -5.5 21t-13.5 11q-14 0 -63 -43q-33 -29 -48 -44q-65 -75 -98 -117q-4 -4 -13 -30q-8 -27 -8 -32 q0 -8 9 -17.5t17 -9.5q55 0 125 47q16 4 38 16q5 5 31 55q12 22 18 70q5 5 7 6q0 34 12 38z" />
<glyph unicode="&#xf4;" horiz-adv-x="472" d="M457 232q0 -49 -22 -92q-3 -14 -7 -23q-23 -55 -84 -98q-32 -22 -114 -64q-2 -1 -28 -4q-28 -33 -80 -33q-25 0 -32 5l-37 31q-6 -1 -23 4q-12 11 -17 35q-5 29 -7 33q5 8 5 12q0 2 -3 7t-3 6q0 6 3 27.5t3 27.5q5 1 21 10q4 4 4 11q0 2 -3 12.5t-2 12.5q20 17 37 45 q6 12 24 42q16 24 78 86q68 68 82 68q2 0 8.5 -1.5t8.5 -1.5q8 0 27 28q2 -1 21 -16l30 -7q12 -6 36 -15q8 0 33 -5q28 -40 35 -70q6 -23 6 -73zM345 245v11q-5 1 -11 7q3 5 3 11q0 10 -5.5 21t-13.5 11q-14 0 -63 -43q-33 -29 -48 -44q-65 -75 -98 -117q-4 -4 -13 -30 q-8 -27 -8 -32q0 -8 9 -17.5t17 -9.5q55 0 125 47q16 4 38 16q5 5 31 55q12 22 18 70q5 5 7 6q0 34 12 38zM453 465q0 -5 -6 -20q-6 -3 -10 -3q-11 0 -16 3q-9 9 -43 62l-22 33q-6 8 -13 9q-1 -1 -8 -3q-5 -5 -33 -37q-3 -5 -9 -12q-1 -2 -39 -46q-13 -10 -16 -23 q-14 -8 -20 -8q-11 2 -14 6q-8 4 -16 25q0 1 1 2q0 9 19 36l24 31q18 23 54 64q5 4 17 16q8 6 13 11q2 2 9 5q17 0 24 -7q2 -1 6 -3.5t6 -3.5q4 -3 11.5 -9.5t11.5 -9.5q3 -6 12 -16l33 -66q8 -15 16 -24v-1q2 -3 8 -11z" />
<glyph unicode="&#xf5;" horiz-adv-x="472" d="M478 601h8l-6 -17l2 -1v-1l-5 -6l-10 -17l-1 -8l-2 -6l-2 -2v-2l2 -1l-9 -20l1 -4v-1l5 -3l-3 -10l-3 -11l6 3v-3l-4 -3v-2l-7 -10l-1 -1l-2 -10l-4 -7l-6 -4l-4 -3l-8 -5l-22 -10l-28 -4l-30 1l-24 9l-16 9l-12 12l-8 14l-10 22l-3 9l-9 -5l-14 -19l-7 -11l-1 -3l-7 -4 l-1 -3l-9 -2l-5 -4h-9l-4 -3h-9l-4 3l-1 3l-5 5l-7 8l3 3l-3 4v4l-1 7l3 15l14 30l12 20l20 16l17 12l11 5l9 -1l18 1l11 -2l32 -19l20 -28l2 -7l-1 -2v-25l1 -1l6 -4h7l17 3l8 7l16 19l24 30l21 24l19 12zM457 232q0 -49 -22 -92q-3 -14 -7 -23q-23 -55 -84 -98 q-32 -22 -114 -64q-2 -1 -28 -4q-28 -33 -80 -33q-25 0 -32 5l-37 31q-6 -1 -23 4q-12 11 -17 35q-5 29 -7 33q5 8 5 12q0 2 -3 7t-3 6q0 6 3 27.5t3 27.5q5 1 21 10q4 4 4 11q0 2 -3 12.5t-2 12.5q20 17 37 45q6 12 24 42q16 24 78 86q68 68 82 68q2 0 8.5 -1.5t8.5 -1.5 q8 0 27 28q2 -1 21 -16l30 -7q12 -6 36 -15q8 0 33 -5q28 -40 35 -70q6 -23 6 -73zM345 245v11q-5 1 -11 7q3 5 3 11q0 10 -5.5 21t-13.5 11q-14 0 -63 -43q-33 -29 -48 -44q-65 -75 -98 -117q-4 -4 -13 -30q-8 -27 -8 -32q0 -8 9 -17.5t17 -9.5q55 0 125 47q16 4 38 16 q5 5 31 55q12 22 18 70q5 5 7 6q0 34 12 38z" />
<glyph unicode="&#xf6;" horiz-adv-x="472" d="M245 567h2l8 -3l9 -4l8 1l-1 -7l10 -4l14 -13l6 -7l14 -33l1 -7v-12l-7 -12l-7 -8l-1 -2l-15 -2l-17 -2l-18 7l-8 4l-2 2l-24 17l-11 10l-2 5v13l-2 11l2 13l8 16l18 14zM400 565l22 -7l9 2l12 -15l14 -12l9 -24v-27l-13 -14l-5 -3l-10 -3l-26 4l-20 10l-21 19l-1 15 l-4 6l11 34l10 7l10 3zM457 232q0 -49 -22 -92q-3 -14 -7 -23q-23 -55 -84 -98q-32 -22 -114 -64q-2 -1 -28 -4q-28 -33 -80 -33q-25 0 -32 5l-37 31q-6 -1 -23 4q-12 11 -17 35q-5 29 -7 33q5 8 5 12q0 2 -3 7t-3 6q0 6 3 27.5t3 27.5q5 1 21 10q4 4 4 11q0 2 -3 12.5 t-2 12.5q20 17 37 45q6 12 24 42q16 24 78 86q68 68 82 68q2 0 8.5 -1.5t8.5 -1.5q8 0 27 28q2 -1 21 -16l30 -7q12 -6 36 -15q8 0 33 -5q28 -40 35 -70q6 -23 6 -73zM345 245v11q-5 1 -11 7q3 5 3 11q0 10 -5.5 21t-13.5 11q-14 0 -63 -43q-33 -29 -48 -44 q-65 -75 -98 -117q-4 -4 -13 -30q-8 -27 -8 -32q0 -8 9 -17.5t17 -9.5q55 0 125 47q16 4 38 16q5 5 31 55q12 22 18 70q5 5 7 6q0 34 12 38z" />
<glyph unicode="&#xf7;" horiz-adv-x="0" />
<glyph unicode="&#xf8;" horiz-adv-x="547" d="M472 588q12 -3 16 -16q1 -4 6 -19v-11q1 -10 -8 -35q-1 -6 -22 -33v-5q-1 -7 2 -19q-1 -6 -1 -19q5 -9 11 -9q4 -7 14 -21l12 -23l8 -8q1 -2 3 -11t4 -15q1 0 3 -2q6 -27 7 -31q1 -1 1 -3q1 -4 3.5 -17t3.5 -19q0 -3 2 -12l4 -18q0 -7 -1 -10q2 -3 0 -15q-1 -16 -4 -23 q0 -2 -1 -4t-1 -3q-1 -5 -3 -17q-4 -9 -9 -26l-7 -20q-5 -4 -10 -19q-5 -5 -9 -12v-4l-1 -2q-1 -1 -1 -2q-2 -1 -4 -3t-4 -3q-15 -19 -31 -33l-20 -15q-10 -9 -37 -23q-38 -33 -79 -33q-13 0 -19 1l-9 -4l-10 -1l-7 -3l-6 -1h-5l-6 -3l-20 2l-17 4l-11 4l-12 -24l-7 -9 q-1 -4 -5 -14.5t-6 -16.5q-2 -4 -6 -14l-2 -2q-2 -10 -6 -14t-9 -3q-13 4 -15 19q2 10 3 22q3 21 3 46q-2 3 9 32q-3 1 -9 5q-9 6 -41 31q-3 4 -10 12.5t-9 11.5q-10 18 -15 25l-6.5 16.5l-6.5 16.5q-2 14 -4 20q-1 18 -3 42q1 7 1 25q-1 2 2 19q4 15 4 19q0 3 8 24 q8 22 8 24q9 17 10 21q2 10 20 39q19 30 21 37l34 48l13 16q6 4 9 7q2 3 9 12q5 3 17 15q1 0 21 15l20 11l33 11q6 2 14 3l6 2h12q8 1 10 1l12 -7q3 -3 11 -9q1 0 5 -2.5t8 -4.5l2 -3q3 -3 5 -3l1 -1q22 17 51 33q14 30 19 43q1 2 11.5 9.5t13.5 7.5h9zM460 250q0 62 -19 88 q-11 20 -27 40q-1 2 -7 8q-5 -16 -33 -67q-30 -55 -31 -60q-22 -32 -42 -71q-5 -17 -7 -20q-1 -2 -3.5 -6t-3.5 -6q-17 -36 -25 -57q-3 -6 -8.5 -21.5l-8.5 -23.5q-1 -8 -6 -18l20 -1l4 1l8 2q11 0 31 2q19 3 46 18q7 3 21 13q25 16 42 37l6 11l13 24q11 24 13 32q1 3 5 16 q2 2 4.5 7l3.5 7q0 4 -1 7q5 25 5 38zM353 434l-8 8q-11 -8 -26 -8h-31q-4 0 -38 -22q-8 -11 -26 -33q-13 -15 -34 -50q-4 -6 -7 -10q-3 -9 -9 -21q-4 -8 -7 -13l-5.5 -14t-5.5 -13l-2 -4q-14 -26 -27 -67q-1 -10 -1.5 -16.5t-1 -11t-0.5 -6t0 -0.5q0 -55 22 -77 q19 -17 33 -22q10 22 15 35l41 103q28 56 53 111q32 59 65 131z" />
<glyph unicode="&#xf9;" horiz-adv-x="336" d="M345 392q-1 -8 -2 -8l-2 -2h-3l-3 -3h-2q-5 -3 -13 -3q-12 0 -27 7q-8 3 -24 10q-28 13 -49 29q-40 30 -45 33l-22 18q-8 10 -16 18q-1 1 -9 17q-7 11 -7 22l1 1q1 16 10 16q8 0 13.5 0.5t7.5 0.5t0 1q5 0 9 -1l6 -2q4 -2 7 -3l1 -1q2 0 2 -1l5 -2q3 -2 5 -5l78 -68 q1 -1 17 -15.5t24 -22.5q38 -35 38 -36zM392 86q0 -9 -31 -43q-2 -1 -10 -1q-17 0 -53 10q-8 2 -20 18q-10 16 -15 23q-5 2 -10 -6q-48 -90 -77 -116q-7 -5 -35 -14q-31 -12 -35 -12q-14 0 -48 12q-13 23 -42 50q-24 21 -24 34q0 28 3 76q1 23 14 56q7 6 24 28l13 43 q4 2 20 33q2 10 3 17q6 6 18 23q-2 14 19 48q2 4 4 11t4 10q9 19 18 19t17.5 -15.5t8.5 -28.5q0 -3 -4.5 -16t-4.5 -16q0 -1 -0.5 -11t-1.5 -20q6 -9 7 -24q-11 -23 -30 -74l-8 -4q4 -9 -1 -24l-12 -27l-13 -29q-16 -35 -16 -66q0 -2 12 -8t12 -7h6q6 6 30 19q22 14 30 24 q15 21 28 51l71 167q2 0 8.5 1.5t8.5 1.5q4 0 20 -14q17 -14 25 -14q6 0 8 2q3 -3 8 -18.5t5 -20.5q0 -10 -9 -59l-10 -57q0 -16 16 -16q-1 0 1 1t7.5 3l14 5t21.5 7q5 -20 5 -32z" />
<glyph unicode="&#xfa;" horiz-adv-x="336" d="M374 613h4l5 -3l1 -4l-4 -1l-3 -8l1 -3l-5 -2l-8 -5v-3l3 -4l-4 -4l2 -8l-4 -3v-3l12 2v-1l-14 -11l-3 -10l-7 -11l-6 -7l-12 -11l-11 -8l-40 -24l-36 -16l-7 -1h-17l-12 4h-8l-6 3v4l-4 4l-5 14l1 5l-2 6l2 4l6 6v2l30 27l14 10l41 30l30 18l29 7zM392 86q0 -9 -31 -43 q-2 -1 -10 -1q-17 0 -53 10q-8 2 -20 18q-10 16 -15 23q-5 2 -10 -6q-48 -90 -77 -116q-7 -5 -35 -14q-31 -12 -35 -12q-14 0 -48 12q-13 23 -42 50q-24 21 -24 34q0 28 3 76q1 23 14 56q7 6 24 28l13 43q4 2 20 33q2 10 3 17q6 6 18 23q-2 14 19 48q2 4 4 11t4 10 q9 19 18 19t17.5 -15.5t8.5 -28.5q0 -3 -4.5 -16t-4.5 -16q0 -1 -0.5 -11t-1.5 -20q6 -9 7 -24q-11 -23 -30 -74l-8 -4q4 -9 -1 -24l-12 -27l-13 -29q-16 -35 -16 -66q0 -2 12 -8t12 -7h6q6 6 30 19q22 14 30 24q15 21 28 51l71 167q2 0 8.5 1.5t8.5 1.5q4 0 20 -14 q17 -14 25 -14q6 0 8 2q3 -3 8 -18.5t5 -20.5q0 -10 -9 -59l-10 -57q0 -16 16 -16q-1 0 1 1t7.5 3l14 5t21.5 7q5 -20 5 -32z" />
<glyph unicode="&#xfb;" horiz-adv-x="336" d="M392 86q0 -9 -31 -43q-2 -1 -10 -1q-17 0 -53 10q-8 2 -20 18q-10 16 -15 23q-5 2 -10 -6q-48 -90 -77 -116q-7 -5 -35 -14q-31 -12 -35 -12q-14 0 -48 12q-13 23 -42 50q-24 21 -24 34q0 28 3 76q1 23 14 56q7 6 24 28l13 43q4 2 20 33q2 10 3 17q6 6 18 23q-2 14 19 48 q2 4 4 11t4 10q9 19 18 19t17.5 -15.5t8.5 -28.5q0 -3 -4.5 -16t-4.5 -16q0 -1 -0.5 -11t-1.5 -20q6 -9 7 -24q-11 -23 -30 -74l-8 -4q4 -9 -1 -24l-12 -27l-13 -29q-16 -35 -16 -66q0 -2 12 -8t12 -7h6q6 6 30 19q22 14 30 24q15 21 28 51l71 167q2 0 8.5 1.5t8.5 1.5 q4 0 20 -14q17 -14 25 -14q6 0 8 2q3 -3 8 -18.5t5 -20.5q0 -10 -9 -59l-10 -57q0 -16 16 -16q-1 0 1 1t7.5 3l14 5t21.5 7q5 -20 5 -32zM354 467q0 -5 -6 -20q-6 -3 -10 -3q-12 0 -16 3q-9 9 -43 62l-22 33q-6 8 -13 9q-1 -1 -8 -3q-5 -5 -33 -37q-3 -5 -9 -12 q-1 -2 -39 -46q-13 -10 -16 -23q-14 -8 -20 -8q-11 2 -14 6q-8 4 -16 25q0 1 1 2q0 9 19 36l24 31q18 23 54 64q5 4 17 16q8 6 13 11q2 2 9 5q17 0 24 -7q2 -1 6 -3.5t6 -3.5q4 -3 11.5 -9.5t11.5 -9.5q3 -6 12 -16l33 -66q8 -15 16 -24v-1q2 -3 8 -11z" />
<glyph unicode="&#xfc;" horiz-adv-x="336" d="M155 591h2l8 -3l9 -4l8 1l-1 -7l10 -4l14 -13l6 -7l14 -33l1 -7v-12l-7 -12l-7 -8l-1 -2l-15 -2l-17 -2l-18 7l-8 4l-2 2l-24 17l-11 10l-2 5v13l-2 11l2 13l8 16l18 14zM310 589l22 -7l9 2l12 -15l14 -12l9 -24v-27l-13 -14l-5 -3l-10 -3l-26 4l-20 10l-21 19l-1 15 l-4 6l11 34l10 7l10 3zM392 86q0 -9 -31 -43q-2 -1 -10 -1q-17 0 -53 10q-8 2 -20 18q-10 16 -15 23q-5 2 -10 -6q-48 -90 -77 -116q-7 -5 -35 -14q-31 -12 -35 -12q-14 0 -48 12q-13 23 -42 50q-24 21 -24 34q0 28 3 76q1 23 14 56q7 6 24 28l13 43q4 2 20 33q2 10 3 17 q6 6 18 23q-2 14 19 48q2 4 4 11t4 10q9 19 18 19t17.5 -15.5t8.5 -28.5q0 -3 -4.5 -16t-4.5 -16q0 -1 -0.5 -11t-1.5 -20q6 -9 7 -24q-11 -23 -30 -74l-8 -4q4 -9 -1 -24l-12 -27l-13 -29q-16 -35 -16 -66q0 -2 12 -8t12 -7h6q6 6 30 19q22 14 30 24q15 21 28 51l71 167 q2 0 8.5 1.5t8.5 1.5q4 0 20 -14q17 -14 25 -14q6 0 8 2q3 -3 8 -18.5t5 -20.5q0 -10 -9 -59l-10 -57q0 -16 16 -16q-1 0 1 1t7.5 3l14 5t21.5 7q5 -20 5 -32z" />
<glyph unicode="&#xfd;" horiz-adv-x="479" d="M424 588h4l5 -3l1 -4l-4 -1l-3 -8l1 -3l-5 -2l-8 -5v-3l3 -4l-4 -4l2 -8l-4 -3v-3l12 2v-1l-14 -11l-3 -10l-7 -11l-6 -7l-12 -11l-11 -8l-40 -24l-36 -16l-7 -1h-17l-12 4h-8l-6 3v4l-4 4l-5 14l1 5l-2 6l2 4l6 6v2l30 27l14 10l41 30l30 18l29 7zM440 318q0 -2 -4 -10 t-4 -12q0 -9 -10 -70q-2 -24 -8 -52q-10 -41 -34 -119l-11.5 -24l-12.5 -26q-4 -18 -13 -46q-4 -4 -10 -18q1 -12 -3 -34q-10 -17 -24 -46q0 -1 -1.5 -7t-2.5 -11q-12 -16 -14 -19q1 -2 1 -11l-26 -62l-2 -2q-1 0 -3 5t-3 5q-5 0 -11 -6q-5 -6 -9 -10q3 -7 3 -11 q0 -2 -5 -5.5t-6 -7.5q3 -5 3 -9q0 -7 -17 -10q-16 -4 -16 -11q0 -4 11 -9q0 -3 -11 -17q-1 -4 -6 -19q-2 -2 -7.5 -8l-9.5 -10q3 -4 6 -18q-8 -11 -13 -41q-2 -1 -37 -1q-14 0 -31 21q-7 7 -7 27q0 4 3 8l3 7q3 24 12 73q21 44 37 85q2 5 5 5q2 0 6 -2t6 -2q6 0 7 19 q8 9 23 53q10 16 21 48q15 43 19 50l22 72q11 4 25 12v6q-3 1 -14 10q4 4 10 16q3 10 3 23q0 5 -3 10h-7q-28 -28 -61 -54q-67 -51 -87 -51q-4 0 -24 -5q-54 46 -89 106q-5 8 -5 26q0 1 3 4t3 5q6 29 3 55q5 2 18 14q-2 9 -1 17l48 72q14 14 40 45q1 2 19 10q17 7 25 7 q13 0 24.5 -14.5t11.5 -28.5q0 -10 -9 -19l-10 -12l-5 -5q-9 -9 -21 -27q0 -8 -1 -14q-21 -40 -48 -114q0 -2 -5.5 -13t-5.5 -17q0 -17 10 -17q8 0 46 22q39 23 48 30l26 23l2 5q1 5 4 7q7 8 24 21l10 10q5 5 11 3q3 12 21 35q19 23 25 33q7 10 15 38q8 26 16 35q7 7 37 7 l12 -2q3 -1 40 -18v-8z" />
<glyph unicode="&#xfe;" horiz-adv-x="392" d="M343 232v-11l-6 -13v-4l-5 -8l-1 -9l-11 -25l-14 -18l-24 -19l-18 -8l-25 -4h-25l-27 6l-31 19l-18 12l-13 15l-8 -35l-4 -28l-4 -9l-6 -33l-8 -7l-3 -14l-12 -73l-5 -20l-4 -30l-4 -13l-3 -1l-10 -19l-8 -1l-10 3l-7 16l-1 30l-4 61l5 90l8 78l20 104l28 111l38 130 l33 88l36 81l18 34l19 19l12 11l13 3l20 -11l3 -11l2 -12l3 -13l-9 -34l-16 -54l-5 -17l5 -5h16l14 -9l1 2l4 -3l1 -9l7 -14v-4l3 -1l8 -33l6 -13l17 -82l-1 -3l3 -7l10 -83l-2 -9l3 -9v-53zM244 243l1 21l1 32l-2 29l-2 2l-1 27v3l-2 8l1 25l-8 55l-3 11l-1 34l-3 19 l-18 -48l-68 -238v-21l-3 -3l17 -12l19 -10l14 -5h17l15 8l7 10l10 21z" />
<glyph unicode="&#xff;" horiz-adv-x="392" d="M171 537h2l8 -3l9 -4l8 1l-1 -7l10 -4l14 -13l6 -7l14 -33l1 -7v-12l-7 -12l-7 -8l-1 -2l-15 -2l-17 -2l-18 7l-8 4l-2 2l-24 17l-11 10l-2 5v13l-2 11l2 13l8 16l18 14zM326 535l22 -7l9 2l12 -15l14 -12l9 -24v-27l-13 -14l-5 -3l-10 -3l-26 4l-20 10l-21 19l-1 15 l-4 6l11 34l10 7l10 3zM440 318q0 -2 -4 -10t-4 -12q0 -9 -10 -70q-2 -24 -8 -52q-10 -41 -34 -119l-11.5 -24l-12.5 -26q-4 -18 -13 -46q-4 -4 -10 -18q1 -12 -3 -34q-10 -17 -24 -46q0 -1 -1.5 -7t-2.5 -11q-12 -16 -14 -19q1 -2 1 -11l-26 -62l-2 -2q-1 0 -3 5t-3 5 q-5 0 -11 -6q-5 -6 -9 -10q3 -7 3 -11q0 -2 -5 -5.5t-6 -7.5q3 -5 3 -9q0 -7 -17 -10q-16 -4 -16 -11q0 -4 11 -9q0 -3 -11 -17q-1 -4 -6 -19q-2 -2 -7.5 -8l-9.5 -10q3 -4 6 -18q-8 -11 -13 -41q-2 -1 -37 -1q-14 0 -31 21q-7 7 -7 27q0 4 3 8l3 7q3 24 12 73q21 44 37 85 q2 5 5 5q2 0 6 -2t6 -2q6 0 7 19q8 9 23 53q10 16 21 48q15 43 19 50l22 72q11 4 25 12v6q-3 1 -14 10q4 4 10 16q3 10 3 23q0 5 -3 10h-7q-28 -28 -61 -54q-67 -51 -87 -51q-4 0 -24 -5q-54 46 -89 106q-5 8 -5 26q0 1 3 4t3 5q6 29 3 55q5 2 18 14q-2 9 -1 17l48 72 q14 14 40 45q1 2 19 10q17 7 25 7q13 0 24.5 -14.5t11.5 -28.5q0 -10 -9 -19l-10 -12l-5 -5q-9 -9 -21 -27q0 -8 -1 -14q-21 -40 -48 -114q0 -2 -5.5 -13t-5.5 -17q0 -17 10 -17q8 0 46 22q39 23 48 30l26 23l2 5q1 5 4 7q7 8 24 21l10 10q5 5 11 3q3 12 21 35q19 23 25 33 q7 10 15 38q8 26 16 35q7 7 37 7l12 -2q3 -1 40 -18v-8z" />
<glyph unicode="&#x152;" horiz-adv-x="812" d="M40 147v1v-1zM761 275h1h-1zM822 512q0 4 55.5 -2.5t67.5 -18.5v-6q-12 -12 -53 -15q-3 -1 -12.5 -1.5t-16.5 -3.5q-1 1 -4 1l-10 -6q-3 -3 -15 -6q-3 0 -5 1l-19 -6l-14 -4l-9 -2q-1 1 -4 1q-1 -1 -32 -4h-4q-2 0 -7 -2l-5 -2q-7 -1 -12 -2t-7 0t-4.5 0.5t-2.5 1t-3 0 t-3.5 -1.5t-7.5 -5l-10.5 -7.5t-16.5 -12.5t-23 -17l-5 -4q-6 -4 -14 -10.5t-14 -13.5q-1 -3 -10 -19.5t-16.5 -36t-7.5 -34.5q0 -3 2 -5l32 2q6 1 20 1.5t21 0.5q3 0 10 -0.5t11 -0.5q3 0 11 0.5t12 0.5q9 -2 34 -2l4 -2l27 6q12 0 16 -4v-2q1 -1 1 -19l-11 -7l-8 -3l-3 -3 l-14 -3q-3 -3 -14 -7l-14 -6q-5 -5 -75 -17q-29 -34 -57 -54q-5 -11 -14 -22q-1 0 -10.5 -1t-15.5 -4t-6 -9q0 -35 11.5 -49t39.5 -16l1 -12l5 -4h21l31 4l39 7l18 5l37 9l1 -3q1 -1 1 -3q-1 -3 -1 -6l1 -1v-2q0 -3 1 -5q-4 -4 -5 -6l-1 2q0 -4 1 -6q-2 0 -3 -6.5t-7 -12.5 v-2q-6 -15 -12 -22v-4q-31 -15 -45 -19t-50 -7h-13q0 -1 -3 -1q-4 0 -19 3q-16 0 -26 2.5t-40 20.5l-5 6q-7 8 -13 13.5t-13.5 20t-14.5 38.5q-1 -1 -2.5 -3t-2.5 -3v-4q-23 -23 -65 -53q-6 -2 -12.5 -6.5t-13.5 -8.5t-29 -11t-58 -15h-9q-2 0 -7 -1.5t-6 -1.5 q-78 0 -148 49q-31 22 -56 63q-17 45 -25 84h1q-1 3 0 7t2.5 22t1.5 36l9 36q1 1 10.5 26t25.5 52q48 80 88 120l8 10q4 2 11 9q23 22 51 22l11 7q4 0 6.5 1t6 3t16 6.5t32.5 9.5l2 2h9q1 1 2 1q2 1 3 1q4 0 16 -3h10q25 -18 30 -22q2 -1 15.5 -18t28.5 -27q11 -14 17 -17 l15 -15q3 -5 13 -20l7 -7q4 -10 7 -15v-4q1 -1 11 -19q4 11 5 20l-3 6q-5 10 -10 30q3 2 8 7v3l5 5q-1 1 -1 4q2 9 17 28h2l7 7q0 1 11.5 10.5t15.5 15.5q-3 1 -3 15q18 12 30 13.5t16 -0.5q2 -1 5 -1t4 -1h3l10 -1q4 0 23 1.5t34 1.5h35q3 -1 9.5 -1.5t9.5 -0.5h68 q5 -1 15 -1zM441 195q7 22 7 42q0 45 -11 76.5t-42 62.5l-24 24l-35 21q-11 -8 -25 -8h-30q-6 0 -49 -41q-6 -3 -11.5 -9.5t-12.5 -17t-16.5 -26.5l-22.5 -38q-1 -4 -13 -28t-21.5 -52t-9.5 -54q-3 -15 0 -31t25 -48q28 -35 106 -35q-3 0 6 1t21.5 2t16.5 2q43 6 85 48 l24 36q9 10 32 67v6z" />
<glyph unicode="&#x153;" horiz-adv-x="784" d="M638 28q26 12 56 32.5t32 20.5q3 0 7 -2q-2 -15 -9 -34l-6 -8q-7 -8 -16 -17t-23 -21.5t-31 -23.5t-36.5 -21t-43.5 -16t-48 -6q-53 0 -131 97q-7 9 -11 18q-40 -35 -151 -91q-1 -1 -28 -4q-27 -33 -80 -33q-25 0 -32 5l-36 31h-3q-19 0 -28.5 16t-12.5 35.5t-4 20.5 q6 10 6 12t-3 7t-3 6q0 6 3 27.5t3 27.5q25 6 25 21q0 2 -3 13t-3 12q17 14 28 30.5t34 56.5q12 20 81 87t79 67q2 0 8 -1.5t8 -1.5q8 0 27 28q4 -1 21 -16l31 -7q16 -8 36 -15q47 0 64 -57q30 33 40 43l31 17q16 7 19 23h8q2 0 11 -7.5t11 -7.5l47 -8l23 -3 q35 -9 70.5 -39.5t35.5 -57.5q0 -34 -17 -60.5t-40 -40t-50.5 -22t-43.5 -10.5t-24 -2q-76 0 -98 18q-38 -62 -38 -95q0 -8 14 -28q13 -19 20.5 -22.5t34.5 -6.5q25 -15 45 -15q34 0 94 28zM566 293q-32 -18 -56 -47.5t-41 -56.5q19 -6 21 -6q10 0 50 25q30 19 46.5 37 t19 29.5t7.5 24.5q-12 12 -18 12zM342 246v11q-4 1 -10 7q3 9 3 11q0 10 -6 21t-14 11q-13 0 -63 -43q-36 -32 -64.5 -62.5t-44.5 -52l-36 -46.5q-3 -3 -12 -30t-9 -32q0 -8 8.5 -17.5t16.5 -9.5q56 0 126 47q13 4 38 16q7 9 31 55l10 36q9 37 15 40q0 33 11 38z" />
<glyph unicode="&#x178;" horiz-adv-x="410" d="M482 630l9 7l14 7l1 -9l-14 -24l-6 -14l-20 -30l-7 -14l-143 -212l-5 -12l-17 -28l-7 -8l-9 -17v-3l-4 -3l-6 -10l-11 -19v-5l-12 -77l-4 -8l-8 -66l1 -9l-8 -49l-3 -6l-1 -12l-4 -14l-6 -15l1 -7l-4 -8l-11 -8l-36 -4l-24 8l-12 26l-6 30v69l4 49l7 32l14 73l3 27 l-47 61l-23 41l-19 29l-9 27l-4 45l8 15l19 18l9 -5l4 -5l6 7l22 -8l13 -13l33 -41l17 -25l32 -54l11 -25l13 15l16 30l20 28l3 2l7 12l55 67l64 73l27 26l29 26l17 8zM241 839h2l7 -3l9 -4l8 1l-2 -7l10 -4l12 -13l5 -7l10 -33v-7l-1 -12l-9 -12l-8 -8l-1 -2l-15 -2l-17 -2 l-17 7l-8 4l-2 2l-22 17l-9 10l-2 5l2 13l-1 11l4 13l10 16l19 14zM396 837l21 -7l9 2l10 -15l13 -12l6 -24l-4 -27l-14 -14l-6 -3l-10 -3l-26 4l-18 10l-19 19l1 15l-3 6l15 34l11 7l10 3z" />
<glyph unicode="&#x2c6;" horiz-adv-x="389" d="M328 716q0 -5 -6 -20q-6 -3 -10 -3q-12 0 -16 3q-9 9 -43 62l-22 33q-6 8 -13 9q-1 -1 -8 -3q-5 -5 -33 -37l-9 -12q-1 -2 -39 -46q-13 -10 -16 -23q-14 -8 -20 -8q-11 2 -14 6q-8 4 -16 25q0 1 1 2q0 9 19 36l24 31q18 23 54 64q5 4 17 16q8 6 13 11q2 2 9 5q17 0 24 -7 q2 -1 6 -3.5t6 -3.5q4 -3 11.5 -9.5t11.5 -9.5q3 -6 12 -16l33 -66q8 -15 16 -24v-1q2 -3 8 -11z" />
<glyph unicode="&#x2dc;" horiz-adv-x="435" d="M389 817q-2 -5 -6 -11l1 -1q-5 -11 -19 -27q-1 -3 -6 -13l-2 -1v-3q-3 -6 -9 -16v-3q0 -2 1 -3q-6 -10 -10 -16q1 1 1 0q-1 0 -1 -2q-5 -3 -13 -10l-1 -1q-7 -7 -11 -9q-14 -6 -40 -6q-34 3 -71 23q-2 2 -14 9q-2 2 -12 8q-2 0 -10 4l-8 4l-7 -4q-6 -4 -7 -19 q-6 -16 -22 -16q-5 0 -8 1h-4q-1 1 -3.5 1.5t-3.5 0.5h-4q-5 1 -10 10q-2 2 -6 13l1 1q1 1 1 2q-1 1 -1 4q0 7 4 22q15 34 25 42q21 19 35 17q3 1 10 1q2 0 9.5 -1.5t13.5 -2.5q1 -1 4 -2t5 -2l28 -18q13 -13 21 -22q1 -1 3 -5v-1q3 -9 9 -17l1 -1l6 -2h7q12 2 24 11l39 46 q18 19 24 19l21 1q2 0 10 -2q1 -1 5 -3z" />
<glyph unicode="&#x2000;" horiz-adv-x="440" />
<glyph unicode="&#x2001;" horiz-adv-x="881" />
<glyph unicode="&#x2002;" horiz-adv-x="440" />
<glyph unicode="&#x2003;" horiz-adv-x="881" />
<glyph unicode="&#x2004;" horiz-adv-x="293" />
<glyph unicode="&#x2005;" horiz-adv-x="220" />
<glyph unicode="&#x2006;" horiz-adv-x="146" />
<glyph unicode="&#x2007;" horiz-adv-x="146" />
<glyph unicode="&#x2008;" horiz-adv-x="110" />
<glyph unicode="&#x2009;" horiz-adv-x="176" />
<glyph unicode="&#x200a;" horiz-adv-x="48" />
<glyph unicode="&#x2011;" horiz-adv-x="415" d="M237 229l35 1h78l18 -2l7 -4v-5l-14 -4l-1 -5l-5 -1l-14 -8l-2 -7l-11 -5l-13 -11l-26 -8l-15 -5l-3 -4l-15 5l-2 -4l-25 -13l-36 -9l-23 -5l-28 1l-25 -2l-34 4l-19 -4l-11 7v5l-8 9l-4 3l1 17l-2 7l10 18l4 6l19 6l31 3l62 8l36 4z" />
<glyph unicode="&#x2013;" horiz-adv-x="525" d="M328 236l54 2h78l19 -2l6 -4v-5l-13 -4l-2 -5l-4 -1l-15 -8l-2 -7l-10 -5l-6 -6l-7 -5l-26 -8l-15 -5l-3 -4l-10 -6l-2 -4l-29 -8l-52 -15l-44 -8l-39 -1l-31 -3l-28 1l-25 -1l-39 14l-19 -4l-11 7v5l-8 9l-4 3l1 17l-2 7l10 18l4 6l19 6l49 6l75 12l88 6h43z" />
<glyph unicode="&#x2014;" horiz-adv-x="1080" d="M796 253l182 -8l60 -10l2 -6l-11 -6l-17 -6l-13 -2l2 -5l-11 1l-3 -4h-18l-17 -7l-1 -5h-5l-1 -3l-44 -2l-10 -2h-4l-3 -4l-23 -3l-18 2l-1 -4l-34 -1l-17 -2l-163 -6l-13 -3l-9 -3l-20 -2l-5 1l-13 -1l-12 -2l-9 2l-8 -1l-17 -2l-7 1l-16 -7h-11l-11 -3h-18l-17 -5h-17 l-23 -2l-19 -3l-46 -8l-41 -5h-98l-55 1l-49 7l-16 -11l-6 3l-11 3l-10 8l-2 9l-9 17l2 11l-1 9l14 13l6 11l10 3l7 -1l67 16l47 8l59 -1l37 6l27 2l34 6l38 1l13 2l10 -1l16 1h48l10 2l13 -2l5 -1l19 1h43z" />
<glyph unicode="&#x2018;" horiz-adv-x="258" d="M236 677l17 3l23 -1l3 -3h6l4 -3l8 -14l-6 -31l-16 -16l-19 -17l-36 -31l-20 -26l29 -8l6 -19l-3 -11l-8 -14l-9 -9l-9 -7l-1 -7l-10 1l-15 -16l-1 -4l-9 -3l-7 -3l-5 1l-10 -4h-1l-13 -1l-9 2l-6 5l-3 7l-9 10l-5 12l-6 16v17l1 19l8 25l24 39l31 35l35 31l21 16z" />
<glyph unicode="&#x2019;" horiz-adv-x="169" d="M204 669l21 -7h4l9 -11l7 -12l9 -36l2 -20l-9 -33l-13 -24l-14 -24l-10 -8l-6 -8l-6 -1l-23 -22l-21 -10l-10 -10l-14 -2l-7 -6l-8 9l-9 -2l-5 1l22 42l21 33l24 74l-19 13l-6 9v13l6 13l6 7l1 2l13 9h10l12 9z" />
<glyph unicode="&#x201a;" horiz-adv-x="419" d="M277 588h5l8 -7l5 -6l2 -31l-10 -29l-10 -17l-9 -25l-15 -27l-24 -58l-11 -22l-7 -20l-11 -26l-5 -11l-3 -9l48 25l33 11l11 5l19 -1l16 -8l10 -7l5 -14l-3 -28l-10 -14l-2 -8l-25 -18l-15 -10l-29 -21l-10 -4l-14 -8l-20 -15l-51 -27l163 -97l53 -37l5 -6l16 -12l27 -19 l26 -19l10 -12l3 -6l1 -8l-6 -2l5 -6v-7l-13 5l-8 -1l-11 6l-15 3l-46 20l-160 77l-65 40l-19 13l-3 -8l-8 -21l-15 -47l-1 -13l-3 -4v-21l-2 -4l-3 -19l-4 -2v-9l-22 -7v-9l-13 -7l-6 3l-15 2l-3 10l-13 13l-2 14l5 13l11 53l4 8l3 16l5 20l5 16l1 1l5 25l13 40l3 6l5 28 l11 25l3 13l9 23l11 29l6 21l3 3l12 29l37 84l11 18l31 59l45 68l16 18z" />
<glyph unicode="&#x201c;" horiz-adv-x="392" d="M383 677l17 3l23 -1l3 -3h6l5 -3l7 -14l-6 -31l-15 -16l-20 -17l-35 -31l-21 -26l29 -8l7 -19l-3 -11l-9 -14l-9 -9l-8 -7l-2 -7l-10 1l-15 -16l-1 -4l-9 -3l-7 -3l-4 1l-10 -4h-2l-13 -1l-9 2l-6 5l-3 7l-8 10l-6 12l-6 16v17l2 19l7 25l25 39l30 35l35 31l22 16z M256 663l12 -2h5l11 -6l1 -10l-1 -13l-19 -12l-13 -15l-27 -32l-35 -46l-7 -20l10 -3l5 -2l6 -18l-2 -5l-10 -18l-19 -20l-7 1l-13 -4l-22 -2l-13 3l-7 14l-2 14v31l8 27l15 28l15 21l33 38l35 29l32 19z" />
<glyph unicode="&#x201d;" horiz-adv-x="332" d="M264 680l23 -3l3 1l11 -9l10 -10l16 -34l5 -19l-2 -34l-8 -26l-9 -27l-8 -10l-5 -9l-5 -2l-18 -26l-19 -14l-8 -12l-13 -4l-6 -7l-10 7l-8 -4h-5l13 45l10 38l9 77l-17 8l-7 8l-3 13l3 14l5 8v2l11 11l10 2l10 11zM113 656l42 -2l24 -11l6 -5l12 -18l8 -29v-38l-4 -18 l-6 -11l-3 -11l-7 -10l-25 -24l-12 -4l-8 -8l-1 2l-13 -2l-7 2l-5 -7l-8 -6l-13 -6l-4 1l-20 -14h-1l-2 1l-16 -3l7 24l28 41l32 80l-16 13l-11 2l-16 1l-3 15l2 11l4 13l8 10l13 9z" />
<glyph unicode="&#x201e;" horiz-adv-x="392" d="M286 119l22 -3l4 1l11 -9l9 -10l17 -34l4 -19l-1 -34l-8 -26l-10 -27l-8 -10l-5 -9l-5 -2l-17 -26l-20 -14l-8 -12l-13 -4l-6 -7l-10 7l-8 -4h-5l50 106l-17 54l-18 8l-7 8l-3 13l3 14l5 9v1l12 11l9 2l10 11zM132 95l42 -2l24 -11l6 -5l12 -17l8 -30v-38l-4 -18l-6 -11 l-3 -11l-7 -10l-25 -24l-12 -4l-8 -8l-1 2l-13 -2l-7 2l-5 -6l-8 -7l-13 -6l-4 1l-20 -14h-1l-2 1l-16 -3l7 24l67 83l-7 38l-16 13l-11 2l-16 1l-3 15l2 11l4 13l8 10l13 9z" />
<glyph unicode="&#x2022;" horiz-adv-x="350" d="M137 427l45 -23h7l2 3v9l15 3l-4 -15l4 -9l3 -5l3 5v9h5l10 -22l8 8l4 -3l11 -26l11 -19l4 9l6 -2l4 -10l16 -24l-2 -12l4 -15h-4v-4l7 -25l-3 -29l3 -14l-7 4v-4l2 -9l-19 -12l-22 -8l-12 -22l-26 3h-6l-36 16l-35 28l-10 18l-13 3l1 6l-7 11v12l-23 17l-14 9l5 11v9 l6 10l12 40l-5 23l5 1h12v8l9 17l12 9z" />
<glyph unicode="&#x2026;" horiz-adv-x="740" d="M489 126l30 -13l7 2v5l11 2l-3 -9l5 -7l2 2v5h3l7 -11l6 4l3 -2l7 -14l6 -10h1l4 5l3 -2l4 -5l9 -11l2 -2l-2 -7l5 -23l-2 -16l2 -7l-5 2v-2l2 -5l-13 -7l-16 -4l-9 -12l-17 2h-4l-25 8l-24 16l-8 9l-8 2l1 3l-5 6v7l-16 9l-11 5l2 6h2v5l4 5l-2 7l3 4h6l-4 7l5 3l-3 13 l3 1l8 -1l1 1v4l7 9l7 5zM281 126l31 -13h5l2 2v5l10 2l-3 -9l3 -5l2 -2l2 2v5h3l8 -11l5 4l3 -2l8 -14l7 -10l3 5l4 -2l3 -5l11 -13l-2 -7l4 -7h-4v-3l5 -13l-1 -16l1 -7l-5 2v-2l2 -5l-13 -7l-15 -4l-9 -12l-18 2h-4l-25 8l-24 16l-7 9l-9 2l1 3l-5 6v7l-16 9l-10 5l3 6v5 l4 5l9 21l-4 13l4 1h8v4l7 9l8 5zM52 126l30 -13h5l2 2v5l10 2l-3 -9l3 -5h4v5h4l7 -11l5 4l4 -2l7 -14l7 -10l3 5l4 -2l3 -5l11 -13l-2 -7l2 -10l4 -13l-2 -16l-2 -12l-12 -7l-16 -4l-9 -12l-18 2h-4l-24 8l-25 16l-7 9l-9 2l2 3l-6 6v7l-16 9l-10 5l3 6v5l4 5l-2 7l4 4h5 l-4 7l6 3l-4 13l4 1h9v4l7 9l7 5z" />
<glyph unicode="&#x202f;" horiz-adv-x="176" />
<glyph unicode="&#x2039;" horiz-adv-x="384" d="M337 454l22 -5l7 -6l10 -3v-11l8 -7l-3 -16l-3 -5l-8 -6l-10 -9l-36 -25l-12 -11l4 -4v-3l-49 -35l-5 -6l-49 -36l-8 -9l3 -4l-55 -53l-5 -3l-15 -13l-1 -6l5 -15l30 -33l106 -79l24 -24l30 -38v-4l-8 -2l-3 -6h-6l-4 -5h-1l-20 -10l-8 -2l-7 2l-29 15h-14l-36 20l-17 4 l-1 2l-43 23l-36 29l-28 25l-24 36l-12 21l-6 17l-2 10l2 30l16 44l11 15l61 55l120 86l87 55z" />
<glyph unicode="&#x203a;" horiz-adv-x="455" d="M192 445l20 -3l10 -7l7 -5h6l11 -15l119 -77l43 -49l24 -40l6 -14v-6l6 -10l-1 -14l3 -6v-18l-3 -20l-3 -18l-3 -2l-5 -12h-6l-15 -10l-2 -10l-6 2l-6 -6l-8 -6l-2 -2l-14 -6l-6 -4l-4 5l-20 -16l-19 -13l-6 -1l-15 -1l-26 -8l-13 -2l-5 -5l-14 -3l-10 -3l-41 -8h-7 l-16 -6l-8 -4l-4 4l-24 -9l-34 -20l-4 4l-34 -18l-30 -11l-6 -4h-15v21l6 28l17 33l28 21l53 29l159 64l18 12l-62 48l-33 38l-18 31l-15 21l-9 17l-11 49v12l4 14l2 1l11 18l8 5z" />
<glyph unicode="&#x2044;" horiz-adv-x="252" d="M346 556l-30 -72q-17 -37 -218 -440l-65 -125q-7 -25 -9 -36q-12 -27 -46 -18q-45 15 -38 48l44 103q59 135 89 180l32 55l25 41.5l20 34.5t22 43.5l31 68.5l38 95q8 17 17 32t9 16q9 29 10 29q3 9 16 13.5t32 -0.5q17 -5 29 -19t7 -24q-2 -7 -9 -16z" />
<glyph unicode="&#x205f;" horiz-adv-x="220" />
<glyph unicode="&#x20ac;" horiz-adv-x="426" d="M447 104q0 -1 -1.5 -3t-1.5 -4q0 -1 1.5 -4t1.5 -5q0 -26 -8 -33q-3 -3 -14 -8.5t-18 -10.5q-67 -38 -140 -65q-76 -29 -112 -29q-22 0 -32 4q-12 4 -31 20q-23 12 -34 34q-4 9 -12.5 40.5t-19.5 57.5q-1 3 0.5 6.5t1.5 6.5t-1 6t-1 7q0 20 3 42q2 17 11 48q0 2 -7 -1 q-2 0 -4 1.5t-4 1.5q-6 -1 -11 -2q-2 0 -5 -1.5t-6 -0.5q-4 0 -7 2t-6 5v2v3l-4 4q-2 1 -3 2q-3 4 -5 8q-2 5 -2 10q0 3 1 5.5t1 4.5l-2 4q0 1 -1.5 2t-0.5 2l8 14q4 7 10 12l10 4q3 1 5.5 2.5t5.5 2.5q2 0 33 4q6 1 11.5 1t10 0.5t11.5 2.5q10 19 19 29q10 14 49 58 q0 2 29 37q27 31 41 58q17 11 25 17l48 41q4 3 7.5 7t6.5 6l7 7t8 7q12 3 23 8l34 9q4 0 18 -7q12 -7 28 -20q19 -15 28 -43q9 -23 15 -79q-3 -16 -18 -20q-5 -2 -18 -2q-10 0 -17 7q-6 6 -6 16v12q0 3 2 9t2 9q0 5 -5 10q-4 6 -7 6q-29 0 -79 -45q-52 -44 -112 -126 q4 -10 10.5 -12t13 1t18 7.5t21.5 4.5h63h11q5 0 10 -1q1 0 1.5 -2t1.5 -2q1 -1 2 -1.5t2 -1.5l2 -2v-3q-2 -1 -4.5 -1t-5.5 -1l-8 -2q-1 -1 -1 -3q0 -1 -1 -2t-2 -1h-3q-2 -1 -3.5 -3.5t-3.5 -3.5t-5 -0.5t-5 -1.5q-1 -1 0 -2.5t1 -2.5q0 -3 -2 -4q-1 -2 -3 -2t-3 -1 q-2 -1 -5 -4l-8 -6q-6 -6 -8 -7q-6 -3 -13 -3.5t-11 -1.5l-24 -10h-3v-3q-1 0 -9 2q-1 0 -9 2q-1 0 -1 -1l-1 -1v-1l-14 -8l-14 -8q-6 -2 -12 -3t-11 -2q-4 -1 -8.5 -0.5t-7 -0.5t-6.5 -5q-23 -52 -28 -71q-7 -29 -7 -53q0 -32 18 -45q18 -15 57 -15q18 0 59 11q43 12 93 31 q41 15 71 32q24 15 25 15q5 0 7 -7q3 -4 3 -10z" />
<glyph unicode="&#x2122;" horiz-adv-x="607" d="M544 623q6 -5 8 -13q1 -9 3 -17v-19q-3 -24 -3 -38l-1 -2q-6 -26 -11 -64q-2 -7 -3.5 -21.5t-5.5 -22.5v-5q0 -3 -1 -5v-6q-1 -1 -1.5 -10t-3.5 -19q1 -1 1 -3l-1 -2q1 2 0 -5q-4 -19 -4 -28q0 -2 1 -4q-1 -1 -1 -3v-6v-4l-1 -3q0 -8 -3 -13t-5 -5v-1l-2 -2q-1 -3 -3 -5 l-1 -1l2 -1l-2 -3v-4l-3 -4l-1 -8l-3 -2h1l-1 -1l-2 -1v-5l-2 -2v-3h-1l-2 -1v4l-2 8l-1 4q0 6 -1 12v2l-1 3v5l-1 2q1 1 1 4l-1 22l1 138q0 5 -2 17q0 13 1 21v3q2 6 2 14l1 2q-1 0 -2.5 -1.5t-2.5 -1.5q-4 0 -16 -12l-9 -17q-1 0 -1 -1t-1 -2l-4 -7q-2 -4 -4.5 -9.5 t-3.5 -6.5l-3 -2q-4 -12 -6 -14v-2l-5 -9q-1 -2 -6 -11l-1 -3l-4 -7q-4 -6 -6 -6l-6 -8q-7 -7 -8 -7q0 -1 -2 -2l-2 -1q-7 2 -18 10t-13 8q-27 12 -32 51v19q1 4 1 12q-1 0 -1 -1l-1 -2l-2 -4l-3 -5l-1 -2q0 -2 -2.5 -9t-6.5 -15q-2 0 -12 -25l-13 -44l-4 -16q-1 -2 -1 -5 q-2 -11 -1 -5t-1.5 -5.5l-9.5 -45.5q-1 -2 -1 -5t-2.5 -8.5t-10.5 -17.5l-1 1q0 -2 -1 -2h-2l-3 2l-4 2h1l-2 2v1q-6 18 -6 31q0 5 1 11q2 5 3 12.5t0 10.5t7 41t24 104l7.5 21.5t12.5 31.5v1q2 4 5 7l2 2q0 3 2 7l2 3l4 6q-5 -1 -15 -6h-11l-3 -2h-1q-2 0 -3 1q-3 0 -5 -1 l-2 -1q-1 0 -5 2q-1 -1 -3 -1.5t-3 -0.5l-3 -1q-7 0 -11 -1h-3h-12q-4 0 -6 -1h-3q-5 -5 -30 -105q-11 -55 -21 -93l-6 -24v-10v-2q0 -4 -3 -13v-3l-3 -7l-11 -9h-1q-1 -1 -5 -3h-2h-1h-1q-3 5 -3 32q0 2 1 3v3l-1 2v14q0 4 2 18q-1 0 -1 2q1 21 4 37v3q0 1 2 7q0 2 -1 3 q2 7 3 16l1 2q0 6 1 10.5l3.5 15.5t4.5 26q1 3 1.5 6t3.5 17t9 37q-1 0 -2.5 5t-2.5 5q-1 5 -12 6h-3h-13q-66 0 -74 28q0 2 4.5 5.5t7.5 3.5l4 -2q6 3 23 3h9q1 1 4 1.5t4 0.5h2h4q2 -2 6 -2t8 1l22 -2q24 2 35 2q5 0 9.5 -0.5t12 -1t14.5 -0.5h7q7 1 15 2q0 -1 14 -1h14 h17q2 0 12 -2t13 -2q1 0 7.5 -5t6.5 -6l-2 -2q1 0 9 -2q3 -1 5.5 -1t8 -5t13.5 -15q8 -15 9 -38v-26q-1 -6 -1 -13v-31q0 -2 1 -9t1 -13l6 12q7 12 16 21l10 18l2 2l5 9q12 23 27 48l8 13q6 9 10 17l9 12q9 12 16 23q0 2 6 7t13 16l3 2q4 4 10 4q8 0 21 -10z" />
</font>
</defs>
</svg>
